<?xml version="1.0" standalone="no"?>
<!DOCTYPE svg PUBLIC "-//W3C//DTD SVG 1.1//EN" "http://www.w3.org/Graphics/SVG/1.1/DTD/svg11.dtd" >
<svg xmlns="http://www.w3.org/2000/svg">
<metadata>
Created by FontPrep 20130207 at Wed Oct 18 17:12:16 2017
 By Benoit Etcheverry
Copyright (c) 2010 Dalton Maag Ltd. All rights reserved. This font may not be altered in any way without prior permission of Dalton Maag Ltd. 
</metadata>
<defs>
<font id="66c2ad7a9a6bee49ff6d62383e091c09" horiz-adv-x='1024' >
  <font-face 
    font-family="AktivGrotesk-Bold"
    font-weight="700"
    font-stretch="normal"
    units-per-em="2048"
    panose-1="2 11 8 4 2 2 2 2 2 4"
    ascent="1638"
    descent="-410"
    x-height="1069"
    cap-height="1462"
    bbox="-379 -465 2773 1997"
    underline-thickness="266"
    underline-position="-6"
    unicode-range="U+0008-FB04"
  />
<missing-glyph horiz-adv-x="1034" 
d="M827 102v1346h-620v-1346h620zM102 1550h828v-1550h-828v1550z" />
    <glyph glyph-name="f_f" unicode="ff" horiz-adv-x="1550" 
d="M197 846h-168v223h168v35q0 191 102 283t249 92t245 -31l-39 -209q-66 16 -123 16t-103 -31q-45 -32 -45 -114v-41h248v-223h-248v-846h-286v846zM973 846h-168v223h168v35q0 191 102 283t271 92q125 0 223 -31l-39 -209q-66 16 -123 16q-57 1 -102 -31t-45 -114v-41h247
v-223h-247v-846h-287v846z" />
    <glyph glyph-name="f_i" unicode="fi" horiz-adv-x="1320" 
d="M197 846h-168v223h168v35q0 191 102 283t249 92t245 -31l-39 -209q-66 16 -123 16t-103 -31q-45 -32 -45 -114v-41h248v-223h-248v-846h-286v846zM901 1462h295v-258h-295v258zM905 1069h287v-1069h-287v1069z" />
    <glyph glyph-name="f_l" unicode="fl" horiz-adv-x="1320" 
d="M197 846h-168v223h168v35q0 191 102 283t249 92t245 -31l-39 -209q-66 16 -123 16t-103 -31q-45 -32 -45 -114v-41h248v-223h-248v-846h-286v846zM905 1462h287v-1462h-287v1462z" />
    <glyph glyph-name="f_f_i" unicode="ffi" horiz-adv-x="2095" 
d="M197 846h-168v223h168v35q0 191 102 283t249 92t245 -31l-39 -209q-66 16 -123 16t-103 -31q-45 -32 -45 -114v-41h248v-223h-248v-846h-286v846zM973 846h-168v223h168v35q0 191 102 283t271 92q125 0 223 -31l-39 -209q-66 16 -123 16q-57 1 -102 -31t-45 -114v-41h247
v-223h-247v-846h-287v846zM1675 1462h295v-258h-295v258zM1679 1069h287v-1069h-287v1069z" />
    <glyph glyph-name="f_f_l" unicode="ffl" horiz-adv-x="2095" 
d="M197 846h-168v223h168v35q0 191 102 283t249 92t245 -31l-39 -209q-66 16 -123 16t-103 -31q-45 -32 -45 -114v-41h248v-223h-248v-846h-286v846zM973 846h-168v223h168v35q0 191 102 283t271 92q125 0 223 -31l-39 -209q-66 16 -123 16q-57 1 -102 -31t-45 -114v-41h247
v-223h-247v-846h-287v846zM1679 1462h287v-1462h-287v1462z" />
    <glyph glyph-name=".notdef" horiz-adv-x="1034" 
d="M827 102v1346h-620v-1346h620zM102 1550h828v-1550h-828v1550z" />
    <glyph glyph-name=".null" horiz-adv-x="0" 
 />
    <glyph glyph-name=".null" horiz-adv-x="0" 
 />
    <glyph glyph-name=".null" horiz-adv-x="0" 
 />
    <glyph glyph-name="nonmarkingreturn" unicode="&#x9;" horiz-adv-x="454" 
 />
    <glyph glyph-name="nonmarkingreturn" unicode="&#xd;" horiz-adv-x="454" 
 />
    <glyph glyph-name="space" unicode=" " horiz-adv-x="454" 
 />
    <glyph glyph-name="exclam" unicode="!" horiz-adv-x="561" 
d="M139 326h283v-326h-283v326zM127 1462h307l-20 -999h-267z" />
    <glyph glyph-name="quotedbl" unicode="&#x22;" horiz-adv-x="786" 
d="M455 1456h262l-15 -555h-233zM70 1456h266l-17 -555h-235z" />
    <glyph glyph-name="numbersign" unicode="#" 
d="M698 537l56 315h-219l-56 -315h219zM39 326v211h197l51 315h-185v209h222l53 328h244l-54 -328h219l54 328h243l-53 -328h137v-209h-170l-51 -315h152v-211h-191l-51 -326h-244l52 326h-220l-51 -326h-243l51 326h-162z" />
    <glyph glyph-name="dollar" unicode="$" 
d="M362 1055q0 -70 42 -112t128 -64v350q-170 -20 -170 -174zM840 378q0 153 -174 191v-370q100 10 137 63.5t37 115.5zM532 1636h134v-188q231 -18 328.5 -133t117.5 -287l-274 -35q-16 113 -55.5 167t-116.5 67v-377l61 -12q209 -45 307.5 -146.5t98.5 -281.5t-116.5 -306
t-350.5 -137v-211h-134v213q-355 34 -410.5 209.5t-60.5 274.5h287q4 -115 48 -174.5t136 -75.5v393q-221 41 -336.5 142.5t-115.5 285.5t116 297.5t336 128.5v186z" />
    <glyph glyph-name="percent" unicode="%" horiz-adv-x="1988" 
d="M584 999q0 139 -38 193t-105 55q-67 0 -105 -54q-38 -53 -37 -193q-1 -140 37 -192t105 -52t105 52t38 191zM441 555q-169 0 -275 109t-105 333q0 225 106 339t273 114q266 0 351 -249q29 -85 29 -202t-28 -201q-80 -243 -351 -243zM774 0h-276l712 1415h277zM1405 412
q-1 -140 37 -192t105 -52t105 52t38 192t-38 193q-38 54 -105 54t-105 -54t-37 -193zM1547 -33q-170 0 -275 109t-105 333q0 223 107 339t272 114q269 0 350 -249q29 -85 29 -201t-28 -202q-80 -243 -350 -243z" />
    <glyph glyph-name="ampersand" unicode="&#x26;" horiz-adv-x="1372" 
d="M741 1135q0 68 -33.5 103.5t-95.5 35.5t-98.5 -37t-36.5 -122t117 -202q147 89 147 222zM348 432q0 -239 275 -239q124 0 202 61l-331 391q-146 -87 -146 -213zM188.5 90.5q-127.5 123.5 -127.5 314.5t122 280t184 124q-146 167 -146 321q0 153 107.5 251t281.5 98
t276.5 -92t102.5 -255t-108.5 -245t-163.5 -115l266 -311q45 110 45 276h254q0 -257 -139 -467l229 -270h-328l-75 90q-159 -123 -369 -123q-284 0 -411.5 123.5z" />
    <glyph glyph-name="quotesingle" unicode="'" horiz-adv-x="421" 
d="M70 1456h282l-14 -555h-254z" />
    <glyph glyph-name="parenleft" unicode="(" horiz-adv-x="610" 
d="M377 624.5q0 -483.5 223 -878.5h-272q-179 277 -212.5 517.5t-33.5 421t64.5 410.5t181.5 408h272q-223 -395 -223 -878.5z" />
    <glyph glyph-name="parenright" unicode=")" horiz-adv-x="610" 
d="M233 624.5q0 483.5 -223 878.5h273q245 -378 245 -812t-94 -645.5t-151 -299.5h-273q223 395 223 878.5z" />
    <glyph glyph-name="asterisk" unicode="*" horiz-adv-x="851" 
d="M295 1053l-254 57l94 223l211 -123l-51 252h262l-51 -252l211 123l94 -223l-254 -57l205 -203l-201 -143l-135 227l-135 -227l-201 143z" />
    <glyph glyph-name="plus" unicode="+" 
d="M477 573h-358v248h358v389h258v-389h359v-248h-359v-389h-258v389z" />
    <glyph glyph-name="comma" unicode="," horiz-adv-x="503" 
d="M131 330h279l-127 -523h-220z" />
    <glyph glyph-name="hyphen" unicode="-" horiz-adv-x="796" 
d="M92 754h613v-283h-613v283z" />
    <glyph glyph-name="period" unicode="." horiz-adv-x="503" 
d="M106 330h293v-330h-293v330z" />
    <glyph glyph-name="slash" unicode="/" horiz-adv-x="784" 
d="M297 0h-285l475 1503h285z" />
    <glyph glyph-name="zero" unicode="0" 
d="M604.5 213q67.5 0 113.5 34t74.5 98.5t41 155.5t12.5 207.5t-12.5 208t-41 156t-74.5 98t-113.5 33.5t-113 -33.5t-73 -98t-39.5 -156t-12 -208t12 -207.5t39.5 -155.5t73 -98.5t113 -34zM604 -37q-256 0 -396 180.5t-140 560.5t142.5 565t397.5 185q256 0 396.5 -181
t140.5 -565t-142.5 -564.5t-398.5 -180.5z" />
    <glyph glyph-name="one" unicode="1" 
d="M856 1415v-1415h-293v1083l-276 -165l-127 210l452 287h244z" />
    <glyph glyph-name="two" unicode="2" 
d="M791 1016q0 78 -50.5 134t-144.5 56t-152.5 -46t-87.5 -175l-278 33q41 199 160.5 317.5t362.5 118.5t366 -116.5t123 -317.5q0 -235 -147.5 -390t-252 -241t-162.5 -139h582l-31 -250h-981v215q88 78 174 148.5t173 147.5t152 138.5t108 118.5t64.5 113.5t21.5 134.5z
" />
    <glyph glyph-name="three" unicode="3" 
d="M1120 418q0 -323 -188 -389t-332 -66q-269 0 -392.5 140t-133.5 346h293q10 -133 67.5 -186.5t161.5 -53.5q229 0 229 199q0 104 -52 150t-173 46h-143v252h159q182 0 183 182q0 172 -195 172q-98 0 -157.5 -45t-86.5 -159l-274 36q40 196 162 304t356 108t358.5 -106
t124.5 -277q0 -216 -190 -319q223 -92 223 -334z" />
    <glyph glyph-name="four" unicode="4" 
d="M690 547v493l-344 -493h344zM963 1415v-868h180l-31 -230h-149v-317h-273v317h-637v195l647 903h263z" />
    <glyph glyph-name="five" unicode="5" 
d="M649 930q234 0 346.5 -131t112.5 -353t-130.5 -352.5t-361.5 -130.5t-363 109.5t-144 339.5h286q10 -98 57.5 -149.5t159.5 -51.5q211 0 211 252q0 121 -53 177t-179 56t-210 -96h-242l70 815h815v-248h-575l-27 -301q95 64 227 64z" />
    <glyph glyph-name="six" unicode="6" 
d="M848 449q0 245 -223 245q-161 0 -197.5 -88t-33.5 -150q6 -123 60.5 -193t156.5 -70q103 0 170 63t67 193zM1013.5 804q110.5 -120 110.5 -346t-136.5 -360.5t-373.5 -134.5q-276 0 -395 189t-119 444q0 464 152.5 661t402.5 197q211 0 318.5 -88t136.5 -272l-266 -33
q-23 80 -61 118t-132 38q-133 0 -197.5 -113t-72.5 -305q113 121 313 125q209 0 319.5 -120z" />
    <glyph glyph-name="seven" unicode="7" 
d="M88 1167v248h999v-221q-303 -561 -473 -1194h-317q195 635 465 1167h-674z" />
    <glyph glyph-name="eight" unicode="8" 
d="M606 608q-258 0 -258 -207q0 -96 60.5 -153.5t197.5 -57.5t197.5 59t60.5 153t-56 150t-202 56zM656 840q175 0 175 189q0 89 -50 146.5t-172 57.5t-179 -56t-57 -148q0 -93 54 -141t229 -48zM980 1346q124 -108 124 -293q0 -219 -178 -320q98 -47 157.5 -131t59.5 -201
q0 -203 -135.5 -320.5t-404.5 -117.5t-402 118t-133 320q0 111 60.5 197t152.5 133q-178 100 -179 324q0 176 130 287.5t377 111.5t371 -108z" />
    <glyph glyph-name="nine" unicode="9" 
d="M586 717q158 0 205 115.5t4 254t-201 138.5q-98 0 -166 -64.5t-68 -180.5t52.5 -189.5t173.5 -73.5zM506 489q-199 0 -313.5 122t-114.5 348t141 360.5t377 134.5q277 0 395.5 -194t118.5 -463t-39 -428.5t-107.5 -249.5t-165 -123t-208.5 -33q-229 0 -348 96.5
t-136 298.5h273q10 -76 53 -117.5t150 -41.5q135 0 190 107.5t57 314.5q-124 -132 -323 -132z" />
    <glyph glyph-name="colon" unicode=":" horiz-adv-x="503" 
d="M106 330h293v-330h-293v330zM106 1069h293v-330h-293v330z" />
    <glyph glyph-name="semicolon" unicode=";" horiz-adv-x="503" 
d="M131 330h279l-127 -523h-220zM106 1069h293v-330h-293v330z" />
    <glyph glyph-name="less" unicode="&#x3c;" 
d="M150 807l937 410v-265l-606 -256l606 -256v-268l-937 410v225z" />
    <glyph glyph-name="equal" unicode="=" 
d="M158 1049h897v-248h-897v248zM158 596h897v-248h-897v248z" />
    <glyph glyph-name="greater" unicode="&#x3e;" 
d="M125 436l606 254l-606 258v269l938 -410v-225l-938 -410v264z" />
    <glyph glyph-name="question" unicode="?" horiz-adv-x="1050" 
d="M371 326h282v-326h-282v326zM528 1487q219 0 343 -100.5t124 -269.5t-79.5 -252.5t-131 -134t-90.5 -104.5t-39 -128v-35h-282v47q0 137 77.5 218t109.5 112q76 74 106 118.5t30 122.5t-46 122t-137 44t-147.5 -47t-80.5 -166l-265 33q76 420 508 420z" />
    <glyph glyph-name="at" unicode="@" horiz-adv-x="2056" 
d="M889 666.5q-68 -93.5 -68 -265.5q0 -104 38 -153t95 -49q104 0 157 67t71 180l10 66q18 112 -13 180t-126 68q-96 0 -164 -93.5zM1020 -453q-443 0 -680.5 239.5t-237.5 633.5q0 327 155 555.5t385 337t436 108.5q407 0 644.5 -206.5t237.5 -579.5q0 -316 -146.5 -479.5
t-345.5 -163.5q-111 0 -179 34.5t-91 125.5q-112 -175 -303 -175q-164 0 -255 111.5t-91 286.5q0 254 132.5 423t340.5 169q156 0 240 -133l18 110h256l-115 -665q-2 -10 -2 -27q0 -72 64 -72q108 0 185 117.5t77 341.5q0 296 -172.5 441t-482.5 145q-154 0 -291 -56.5
t-240.5 -160t-165 -251t-61.5 -311.5q0 -324 171.5 -513t482.5 -189t450 162h264q-71 -151 -255.5 -255t-424.5 -104z" />
    <glyph glyph-name="A" unicode="A" horiz-adv-x="1429" 
d="M885 590l-178 524l-177 -524h355zM569 1462h291l549 -1462h-328l-116 338h-512l-117 -338h-316z" />
    <glyph glyph-name="B" unicode="B" horiz-adv-x="1325" 
d="M700 240q209 0 236 78.5t27 125.5q0 94 -51.5 143.5t-180.5 49.5h-287v-397h256zM711 883q121 0 166 45t45 132t-58.5 125t-197.5 38h-222v-340h267zM150 1462h526q439 0 491 -155.5t52 -240.5t-37 -161t-140 -129q177 -94 196 -191t19 -165t-27.5 -150t-130.5 -176
t-388 -94h-561v1462z" />
    <glyph glyph-name="C" unicode="C" horiz-adv-x="1460" 
d="M102 729q0 354 182 562t496 208q394 0 484 -192.5t110 -307.5l-303 -38q-23 129 -87 202.5t-204 73.5q-176 0 -267 -132t-91 -375t97 -374t249 -131t219.5 73t83.5 208h328q-21 -242 -180 -392.5t-452 -150.5q-315 0 -490 206t-175 560z" />
    <glyph glyph-name="D" unicode="D" horiz-adv-x="1509" 
d="M1092 736q0 466 -396 466h-241v-942h196q335 0 388 184.5t53 291.5zM150 1462h546q336 0 523.5 -182t187.5 -540t-199.5 -549t-562.5 -191h-495v1462z" />
    <glyph glyph-name="E" unicode="E" horiz-adv-x="1236" 
d="M150 1462h997v-260h-692v-319h651v-262h-651v-361h735l-31 -260h-1009v1462z" />
    <glyph glyph-name="F" unicode="F" horiz-adv-x="1196" 
d="M150 1462h960v-262h-655v-344h616v-262h-616v-594h-305v1462z" />
    <glyph glyph-name="G" unicode="G" horiz-adv-x="1486" 
d="M420 731q0 -508 366 -508q188 0 316 80v244h-279v254h561v-619q-113 -104 -268 -161.5t-325 -57.5q-336 0 -512.5 205.5t-176.5 559.5t180.5 562.5t491.5 208.5q264 0 405 -122t183 -328l-303 -39q-26 120 -87 174.5t-198 54.5q-178 0 -266 -133t-88 -375z" />
    <glyph glyph-name="H" unicode="H" horiz-adv-x="1488" 
d="M150 1462h305v-565h579v565h305v-1462h-305v614h-579v-614h-305v1462z" />
    <glyph glyph-name="I" unicode="I" horiz-adv-x="604" 
d="M150 1462h305v-1462h-305v1462z" />
    <glyph glyph-name="J" unicode="J" horiz-adv-x="1302" 
d="M864 520v942h305v-960q0 -263 -145.5 -401t-405.5 -138q-261 0 -402.5 131t-154.5 410h306q13 -145 69 -212t185 -67t186 77t57 218z" />
    <glyph glyph-name="K" unicode="K" horiz-adv-x="1382" 
d="M150 1462h307v-585l538 585h334l-485 -549l538 -913h-340l-411 715l-174 -178v-537h-307v1462z" />
    <glyph glyph-name="L" unicode="L" horiz-adv-x="1196" 
d="M150 1462h305v-1200h692l-33 -262h-964v1462z" />
    <glyph glyph-name="M" unicode="M" horiz-adv-x="1761" 
d="M150 1462h366l365 -1091l374 1091h357v-1462h-281v975l-334 -975h-237l-336 973v-973h-274v1462z" />
    <glyph glyph-name="N" unicode="N" horiz-adv-x="1472" 
d="M150 1462h274l602 -958v958h297v-1462h-272l-605 950v-950h-296v1462z" />
    <glyph glyph-name="O" unicode="O" horiz-adv-x="1597" 
d="M798.5 225q192.5 0 287 131t94.5 374t-94.5 375t-287 132t-286.5 -132t-94 -375t94 -374t286.5 -131zM289.5 1292q187.5 207 513.5 207t509 -206.5t183 -563t-182.5 -561.5t-510.5 -205q-327 0 -513.5 207.5t-186.5 561t187.5 560.5z" />
    <glyph glyph-name="P" unicode="P" horiz-adv-x="1310" 
d="M670 776q220 0 244 87t24 137q0 106 -59 158t-211 52h-217v-434h219zM1239 1006q0 -484 -559 -484h-229v-522h-301v1462h522q567 0 567 -456z" />
    <glyph glyph-name="Q" unicode="Q" horiz-adv-x="1599" 
d="M800.5 1237q-192.5 0 -287.5 -132t-95 -375t95 -377t288 -134q87 0 145 23l-178 219l184 155l166 -208q62 117 62 341t-93.5 356t-286 132zM289.5 1292q187.5 207 513.5 207t509 -206.5t183 -564.5t-186 -556l178 -219l-184 -156l-187 230q-139 -63 -309 -63t-299 53
t-267.5 207t-138.5 507.5t187.5 560.5z" />
    <glyph glyph-name="R" unicode="R" horiz-adv-x="1337" 
d="M930 1014q0 196 -268 196h-211v-407h237q198 0 220 82t22 129zM150 1462h518q316 0 443.5 -129.5t127.5 -312.5q0 -141 -51 -237.5t-172 -161.5l297 -621h-330l-246 549h-286v-549h-301v1462z" />
    <glyph glyph-name="S" unicode="S" horiz-adv-x="1320" 
d="M680 219q199 0 228.5 76t29.5 125t-43 99t-158 73l-190 35q-235 42 -349 143t-114 304t155 314t429 111q509 0 561 -440l-289 -37q-23 121 -87.5 174t-195.5 53q-209 0 -236.5 -63.5t-27.5 -93.5q0 -82 46 -123t157 -64l201 -39q238 -47 348 -152.5t110 -303.5
t-146.5 -322.5t-433.5 -124.5q-288 0 -446.5 128t-171.5 386h310q10 -135 86.5 -196.5t226.5 -61.5z" />
    <glyph glyph-name="T" unicode="T" horiz-adv-x="1269" 
d="M481 1198h-440v264h1188v-264h-441v-1198h-307v1198z" />
    <glyph glyph-name="U" unicode="U" horiz-adv-x="1419" 
d="M709 -37q-588 0 -588 635v864h305v-870q0 -186 65.5 -276.5t219 -90.5t218 90.5t64.5 276.5v870h305v-870q0 -480 -226 -554.5t-363 -74.5z" />
    <glyph glyph-name="V" unicode="V" horiz-adv-x="1427" 
d="M20 1462h340l355 -1034l364 1034h328l-549 -1462h-289z" />
    <glyph glyph-name="W" unicode="W" horiz-adv-x="1982" 
d="M20 1462h345l235 -1016l240 1008h323l250 -1008l221 1016h328l-397 -1462h-297l-273 1081l-264 -1081h-289z" />
    <glyph glyph-name="X" unicode="X" horiz-adv-x="1400" 
d="M522 770l-475 692h348l301 -467l308 467h327l-467 -700l525 -762h-349l-354 532l-340 -532h-334z" />
    <glyph glyph-name="Y" unicode="Y" horiz-adv-x="1345" 
d="M831 0h-305v596l-506 866h340l316 -592l325 592h324l-494 -866v-596z" />
    <glyph glyph-name="Z" unicode="Z" horiz-adv-x="1202" 
d="M61 1200v262h1082v-225l-729 -975h762l-31 -262h-1098v223l731 977h-717z" />
    <glyph glyph-name="bracketleft" unicode="[" horiz-adv-x="684" 
d="M147 1503h517v-246h-228v-1265h228v-246h-517v1757z" />
    <glyph glyph-name="backslash" unicode="\" horiz-adv-x="784" 
d="M293 1503l479 -1503h-280l-480 1503h281z" />
    <glyph glyph-name="bracketright" unicode="]" horiz-adv-x="684" 
d="M20 -8h228v1265h-228v246h517v-1757h-517v246z" />
    <glyph glyph-name="asciicircum" unicode="^" 
d="M489 1462h232l416 -856h-299l-234 514l-233 -514h-297z" />
    <glyph glyph-name="underscore" unicode="_" horiz-adv-x="1024" 
d="M0 -252h1024v-106h-1024v106z" />
    <glyph glyph-name="grave" unicode="`" horiz-adv-x="847" 
d="M137 1534h326l246 -317h-265z" />
    <glyph glyph-name="a" unicode="a" horiz-adv-x="1148" 
d="M348 294q0 -44 37 -75t125 -31t167 59t79 175v55l-127 -6q-236 -10 -258.5 -71.5t-22.5 -105.5zM442 -27q-268 0 -324.5 117.5t-56.5 215.5t49.5 167.5t156 121.5t354.5 62l137 7v53q0 98 -54.5 135t-128.5 37q-170 0 -194 -129l-262 24q29 168 147.5 243t319.5 75
q348 0 397 -164t49 -262v-676h-270v135q-142 -162 -320 -162z" />
    <glyph glyph-name="b" unicode="b" horiz-adv-x="1275" 
d="M887 532q0 336 -228 336q-98 0 -167 -59q-80 -76 -80 -250v-33q0 -195 73 -268q65 -59 168 -59q163 0 198.5 121.5t35.5 211.5zM406 0h-279v1462h287v-522q122 162 336 162t325 -151.5t111 -411.5t-125.5 -416t-329.5 -156q-203 0 -325 152v-119z" />
    <glyph glyph-name="c" unicode="c" horiz-adv-x="1165" 
d="M608 197q170 0 189 190h290q-16 -193 -131.5 -306.5t-347.5 -113.5q-388 0 -453 219.5t-65 411.5t140.5 348t390.5 156q310 0 376 -145.5t76 -227.5l-289 -39q-10 82 -47 132t-127 50q-223 0 -223 -338t221 -337z" />
    <glyph glyph-name="d" unicode="d" horiz-adv-x="1273" 
d="M862 547q0 191 -66 257t-175 66q-162 0 -197 -120.5t-35 -212.5q0 -177 61.5 -256.5t163.5 -79.5t168 59q80 80 80 250v37zM860 1462h287v-1462h-279v141q-124 -174 -340 -174t-327 151.5t-111 410.5t123.5 416t325.5 157q203 0 321 -139v499z" />
    <glyph glyph-name="e" unicode="e" horiz-adv-x="1206" 
d="M842 653q0 234 -224 234q-162 0 -198.5 -92.5t-38.5 -141.5h461zM625 -33q-266 0 -400.5 147.5t-134.5 415.5t146 420t390 152q245 0 368.5 -141.5t123.5 -380.5v-115h-741q4 -129 65.5 -202t184.5 -73q170 0 200 144h279q-29 -180 -144.5 -273.5t-336.5 -93.5z" />
    <glyph glyph-name="f" unicode="f" horiz-adv-x="776" 
d="M197 846h-168v223h168v35q0 191 102.5 283t269.5 92q121 0 224 -31l-39 -209q-66 16 -123 16t-102.5 -31.5t-45.5 -113.5v-41h248v-223h-248v-846h-286v846z" />
    <glyph glyph-name="g" unicode="g" horiz-adv-x="1275" 
d="M864 571q0 175 -67 237t-174 62q-161 0 -196.5 -110.5t-35.5 -190.5q0 -170 64.5 -240.5t160.5 -70.5q248 0 248 285v28zM870 1069h279v-919q0 -425 -185.5 -497.5t-319.5 -72.5q-258 0 -373 85t-136 267h291q15 -77 62.5 -103t139.5 -26q91 0 136 30t71.5 90.5
t26.5 232.5v32q-107 -157 -327 -157q-221 0 -333 145.5t-112 386.5t124.5 390t331.5 149t324 -154v121z" />
    <glyph glyph-name="h" unicode="h" 
d="M728 1102q191 0 279.5 -95.5t88.5 -299.5v-707h-287v668q0 113 -42.5 153.5t-106.5 40.5q-105 0 -179 -63q-67 -67 -67 -156v-643h-287v1462h287v-528q123 168 314 168z" />
    <glyph glyph-name="i" unicode="i" horiz-adv-x="544" 
d="M125 1462h295v-258h-295v258zM129 1069h287v-1069h-287v1069z" />
    <glyph glyph-name="j" unicode="j" horiz-adv-x="544" 
d="M6 -145q55 0 89 25.5t34 109.5v1079h287v-1073q0 -197 -89 -286t-264 -89q-102 0 -219 35l41 215q66 -16 121 -16zM125 1462h295v-258h-295v258z" />
    <glyph glyph-name="k" unicode="k" horiz-adv-x="1181" 
d="M127 1462h281v-766l411 373h332l-389 -369l420 -700h-310l-315 541l-149 -135v-406h-281v1462z" />
    <glyph glyph-name="l" unicode="l" horiz-adv-x="544" 
d="M129 1462h287v-1462h-287v1462z" />
    <glyph glyph-name="m" unicode="m" horiz-adv-x="1792" 
d="M1343 1102q166 0 249 -91t83 -296v-715h-286v676q0 152 -52.5 169t-87.5 17q-77 0 -141 -64t-64 -143v-655h-286v676q0 152 -53 169t-87 17q-78 0 -141 -63t-63 -156v-643h-287v1069h279v-143q115 176 307 176q232 0 295 -184q139 184 335 184z" />
    <glyph glyph-name="n" unicode="n" 
d="M737 1102q182 0 270.5 -95.5t88.5 -299.5v-707h-287v668q0 113 -42.5 153.5t-106.5 40.5q-105 0 -179 -63q-67 -67 -67 -156v-643h-287v1069h279v-147q121 180 331 180z" />
    <glyph glyph-name="o" unicode="o" horiz-adv-x="1261" 
d="M387 534q-1 -338 243 -337q244 0 244 337.5t-243.5 337.5t-243.5 -338zM231.5 114.5q-141.5 147.5 -141.5 416.5t146.5 420t394.5 151t394 -149t146 -415q0 -267 -146 -419t-399 -152t-394.5 147.5z" />
    <glyph glyph-name="p" unicode="p" horiz-adv-x="1275" 
d="M887 532q0 336 -228 336q-98 0 -167 -59q-80 -76 -80 -250v-33q0 -195 73 -268q65 -59 168 -59q163 0 198.5 121.5t35.5 211.5zM127 1069h279v-141q122 174 340 174t329 -151.5t111 -411.5t-125.5 -416t-339.5 -156q-80 0 -159 29t-148 115v-508h-287v1466z" />
    <glyph glyph-name="q" unicode="q" horiz-adv-x="1275" 
d="M864 547q0 274 -99 298.5t-144 24.5q-99 0 -164.5 -79.5t-65.5 -249.5q0 -264 89 -302t136 -38q102 0 168 59q80 80 80 250v37zM870 1069h279v-1466h-287v530q-55 -82 -143 -124t-180 -42q-227 0 -338 151.5t-111 410.5t123.5 416t331.5 157t325 -154v121z" />
    <glyph glyph-name="r" unicode="r" horiz-adv-x="858" 
d="M694 1087q62 0 115 -10l-35 -260q-48 12 -108 12q-181 0 -216.5 -83.5t-35.5 -127.5v-618h-287v1069h279v-149q105 167 288 167z" />
    <glyph glyph-name="s" unicode="s" horiz-adv-x="1099" 
d="M574 889q-218 0 -218 -106q0 -46 32 -69.5t124 -39.5l135 -23q216 -34 299.5 -113t83.5 -234t-114.5 -246t-354.5 -91q-333 0 -414 132t-88 241h275q14 -94 75.5 -123t155.5 -29q183 0 183 101q0 49 -28 79.5t-106 43.5l-147 24q-195 31 -290 105.5t-95 227.5t128.5 243
t334.5 90q343 0 403 -128t72 -196l-256 -33q-35 144 -190 144z" />
    <glyph glyph-name="t" unicode="t" horiz-adv-x="776" 
d="M193 346v500h-168v223h168v285h286v-285h246v-223h-246v-494q0 -84 35 -113.5t96 -29.5t111 14l41 -211q-105 -32 -223 -32q-176 0 -261 83.5t-85 282.5z" />
    <glyph glyph-name="u" unicode="u" horiz-adv-x="1202" 
d="M117 362v707h286v-668q0 -115 40.5 -154.5t104.5 -39.5t100 16.5t69 46.5q71 63 71 156v643h287v-1069h-278v147q-126 -180 -317 -180t-277 95.5t-86 299.5z" />
    <glyph glyph-name="v" unicode="v" horiz-adv-x="1161" 
d="M16 1069h332l240 -743l239 743h318l-422 -1069h-287z" />
    <glyph glyph-name="w" unicode="w" horiz-adv-x="1583" 
d="M12 1069h312l149 -709l205 701h250l194 -701l150 709h299l-311 -1069h-279l-190 705l-193 -705h-274z" />
    <glyph glyph-name="x" unicode="x" horiz-adv-x="1120" 
d="M403 549l-350 520h338l182 -305l205 305h299l-346 -504l373 -565h-332l-217 348l-227 -348h-312z" />
    <glyph glyph-name="y" unicode="y" horiz-adv-x="1161" 
d="M274 -168q59 0 94 27.5t60 97.5l33 90l-445 1022h332l250 -702l233 702h314l-432 -1100q-37 -92 -70 -160.5t-95.5 -137t-223.5 -68.5q-114 0 -215 32l47 213q59 -16 118 -16z" />
    <glyph glyph-name="z" unicode="z" horiz-adv-x="1024" 
d="M86 846v223h875v-195l-519 -651h543l-27 -223h-882v195l520 651h-510z" />
    <glyph glyph-name="braceleft" unicode="{" horiz-adv-x="681" 
d="M461 82q0 -96 119 -96h92v-240h-185q-131 0 -212.5 75t-81.5 228v313q0 66 -32 105t-98 39h-18v237h18q66 0 98 39t32 105v313q0 154 81.5 228.5t212.5 74.5h185v-239h-92q-119 0 -119 -97v-344q0 -150 -129 -198q129 -49 129 -199v-344z" />
    <glyph glyph-name="bar" unicode="|" horiz-adv-x="565" 
d="M147 1503h271v-1757h-271v1757z" />
    <glyph glyph-name="braceright" unicode="}" horiz-adv-x="681" 
d="M221 1167q0 97 -119 97h-92v239h185q133 0 213.5 -74.5t80.5 -228.5v-313q0 -66 34 -105t95 -39h19v-237h-19q-61 0 -95 -39t-34 -105v-313q0 -154 -80.5 -228.5t-213.5 -74.5h-185v240h92q119 0 119 96v344q0 151 133 199q-133 48 -133 198v344z" />
    <glyph glyph-name="asciitilde" unicode="~" 
d="M61 463q0 225 80 327.5t254 102.5q66 0 119 -23.5t99 -51t86 -50.5t81 -23q113 0 113 144h256q0 -223 -79 -326.5t-253 -103.5q-96 0 -180 52t-125 75.5t-80 23.5q-113 0 -113 -147h-258z" />
    <glyph glyph-name="uni00A0" unicode="&#xa0;" horiz-adv-x="454" 
 />
    <glyph glyph-name="exclamdown" unicode="&#xa1;" horiz-adv-x="561" 
d="M139 1069h283v-326h-283v326zM147 606h267l20 -1003h-307z" />
    <glyph glyph-name="cent" unicode="&#xa2;" 
d="M563 1042q-151 -47 -151 -316t151 -316v632zM238.5 1105q117.5 150 324.5 173v195h133v-191q278 -17 339 -155t71 -216l-285 -43q-18 149 -125 179v-641q119 27 131 184h291q-16 -180 -116.5 -292t-305.5 -126v-192h-133v194q-221 19 -331.5 165t-110.5 381t117.5 385z
" />
    <glyph glyph-name="sterling" unicode="&#xa3;" 
d="M537 526q0 -165 -84 -280h700l-33 -246h-966l2 203q116 137 116 284q0 71 -6 115h-157v223h129q-19 111 -19 200t37 176t129 170t287 83q329 0 383.5 -145.5t64.5 -214.5l-243 -37q-18 76 -57.5 119t-137.5 43t-147.5 -58.5t-49.5 -144.5t7.5 -120t11.5 -71h430v-223
h-399q2 -18 2 -23v-53z" />
    <glyph glyph-name="currency" unicode="&#xa4;" 
d="M606.5 387q65.5 0 111.5 22.5t74.5 62.5t42 94.5t13.5 120t-13.5 120.5t-42 95t-74.5 62.5t-111.5 22.5t-111.5 -22.5t-75 -62.5t-42 -95t-13 -120.5t13 -120t42 -94.5t75 -62.5t111.5 -22.5zM131 684q0 158 78 293l-123 123l172 166l127 -140q105 58 221 58t221 -58
l127 140l170 -166l-120 -123q77 -131 77 -289t-77 -291l120 -125l-170 -163l-127 137q-110 -56 -221 -56t-221 56l-127 -137l-172 163l123 125q-78 129 -78 287z" />
    <glyph glyph-name="yen" unicode="&#xa5;" 
d="M125 475h344v141h-344v199h221l-323 600h301l288 -586l293 586h285l-322 -600h226v-199h-344v-141h344v-199h-344v-276h-281v276h-344v199z" />
    <glyph glyph-name="brokenbar" unicode="&#xa6;" horiz-adv-x="565" 
d="M147 469h271v-723h-271v723zM147 1503h271v-688h-271v688z" />
    <glyph glyph-name="section" unicode="&#xa7;" horiz-adv-x="1142" 
d="M642 463q178 0 179 145q0 57 -33 100t-122 64l-105 27q-33 8 -83 8t-96 -36t-46 -105t31 -111.5t125 -65.5l79 -18q31 -8 71 -8zM887 371q168 -89 168 -265q0 -178 -123.5 -266t-346.5 -88q-222 0 -355 94.5t-156 327.5h282q22 -162 100.5 -178t129.5 -16q192 0 192 118
q0 41 -24.5 79t-116.5 61l-201 47q-192 50 -266 129.5t-74 235.5q0 155 172 245q-168 84 -168 276q0 151 130.5 239.5t349.5 88.5q338 0 403.5 -132t79.5 -191l-258 -62q-29 90 -80 124t-154 34q-102 0 -145 -34t-43 -80t26 -76t113 -52l219 -55q172 -45 247 -121t75 -183
t-39 -178t-137 -122z" />
    <glyph glyph-name="dieresis" unicode="&#xa8;" horiz-adv-x="847" 
d="M498 1501h266v-256h-266v256zM84 1501h266v-256h-266v256z" />
    <glyph glyph-name="copyright" unicode="&#xa9;" horiz-adv-x="1591" 
d="M633 733q0 -246 168 -246q129 0 141 144h221q-12 -145 -100 -230.5t-271 -85.5t-280.5 112t-97.5 301q0 190 106 304.5t280 114.5q173 0 256 -78t97 -201l-215 -34q-24 141 -135 141q-91 0 -130.5 -68.5t-39.5 -173.5zM1183 1153.5q-150 159.5 -389 159.5
q-238 0 -388 -159.5t-150 -423.5t150 -423.5t390 -159.5q237 0 387 159.5t150 423.5t-150 423.5zM792 0q-152 0 -281.5 52t-222.5 147.5t-144.5 230.5t-51.5 380t202 448.5t509 203.5q306 0 500 -200t194 -529.5t-201.5 -531t-503.5 -201.5z" />
    <glyph glyph-name="ordfeminine" unicode="&#xaa;" horiz-adv-x="872" 
d="M274 915q0 -80 103 -79q82 0 131 36q66 45 65 134v38l-88 -4q-131 -7 -163.5 -31t-40 -45.5t-7.5 -48.5zM578 788q-104 -116 -236 -116q-137 0 -210 61t-73 160q0 98 37 149.5t115.5 91.5t267.5 50l94 4v24q0 72 -37.5 98.5t-95.5 26.5q-122 0 -141 -92l-199 19
q25 123 111 179t209 56t242.5 -40.5t119.5 -268.5v-498h-204v96z" />
    <glyph glyph-name="guillemotleft" unicode="&#xab;" horiz-adv-x="1120" 
d="M532 528l261 459h286l-237 -457l237 -469h-291zM72 528l262 459h287l-238 -457l238 -469h-291z" />
    <glyph glyph-name="logicalnot" unicode="&#xac;" 
d="M147 903h897v-553h-256v305h-641v248z" />
    <glyph glyph-name="uni00AD" unicode="&#xad;" horiz-adv-x="798" 
d="M92 754h613v-283h-613v283z" />
    <glyph glyph-name="registered" unicode="&#xae;" horiz-adv-x="1001" 
d="M499.5 698q145.5 0 234.5 90.5t89 260.5t-89 260t-234.5 90t-233.5 -90t-88 -260t88 -260.5t233.5 -90.5zM186.5 1375.5q125.5 123.5 319.5 123.5t314 -122t120 -328t-124 -328.5t-320 -122.5t-315.5 121.5t-119.5 327t125.5 329zM571 1150q0 38 -82 38h-57v-107h70
q43 0 56 15.5t13 53.5zM324 1274h168q160 0 176 -53t16 -89q0 -74 -70 -114l93 -178h-123l-74 153h-78v-153h-108v434z" />
    <glyph glyph-name="macron" unicode="&#xaf;" horiz-adv-x="847" 
d="M125 1473h598v-220h-598v220z" />
    <glyph glyph-name="degree" unicode="&#xb0;" horiz-adv-x="720" 
d="M360 1026q57 0 91 36t34 96t-33.5 96t-91.5 36t-91 -36t-33 -96t33.5 -96t90.5 -36zM146 1369q85 85 216 85t214 -86t83 -211t-82.5 -211t-214.5 -86q-131 0 -216 85t-85 212t85 212z" />
    <glyph glyph-name="plusminus" unicode="&#xb1;" 
d="M158 248h319v325h-358v248h358v389h258v-389h359v-248h-359v-325h320v-248h-897v248z" />
    <glyph glyph-name="twosuperior" unicode="&#xb2;" horiz-adv-x="843" 
d="M80 1161q61 289 345 289q154 0 232 -70.5t78 -193.5q0 -84 -54.5 -173t-132 -147.5t-118.5 -93.5h315l-22 -182h-610v151q27 25 73.5 61t116.5 96t105.5 92t59.5 61.5t35 59.5t11 69t-23.5 64.5t-73.5 25.5t-82 -28t-46 -107z" />
    <glyph glyph-name="threesuperior" unicode="&#xb3;" horiz-adv-x="843" 
d="M438 719q131 -1 131 105t-129 106h-86v164h88q55 0 84 27.5t29 70.5q0 94 -117 94q-53 0 -88 -25.5t-47 -97.5l-192 27q23 115 100 187.5t235 72.5t232 -68.5t74 -175.5t-113 -182q66 -27 98.5 -80t32.5 -110q0 -125 -76 -202t-250 -77t-252.5 87t-85.5 220h193
q15 -143 139 -143z" />
    <glyph glyph-name="acute" unicode="&#xb4;" horiz-adv-x="847" 
d="M383 1534h326l-308 -317h-264z" />
    <glyph glyph-name="mu" unicode="&#xb5;" horiz-adv-x="1202" 
d="M403 -397h-286v1466h286v-668q0 -115 40.5 -154.5t104.5 -39.5t100 16.5t69 46.5q71 63 71 156v643h287v-1069h-278v147q-99 -172 -256 -172q-92 0 -138 52v-424z" />
    <glyph glyph-name="paragraph" unicode="&#xb6;" horiz-adv-x="1341" 
d="M175 1335q144 127 474 127h559v-1747h-270v1514h-176v-1514h-270v822q-241 19 -351 146.5t-110 325.5q0 199 144 326z" />
    <glyph glyph-name="periodcentered" unicode="&#xb7;" horiz-adv-x="503" 
d="M106 928h293v-330h-293v330z" />
    <glyph glyph-name="cedilla" unicode="&#xb8;" horiz-adv-x="847" 
d="M365 -303q79 0 79 57q0 29 -24.5 43.5t-89.5 14.5h-74l80 204h158l-41 -112q151 -22 168.5 -83t17.5 -89q0 -176 -283 -176q-76 0 -149 12v141q79 -12 158 -12z" />
    <glyph glyph-name="onesuperior" unicode="&#xb9;" horiz-adv-x="843" 
d="M575 1415v-825h-217v616l-190 -102l-82 149l289 162h200z" />
    <glyph glyph-name="ordmasculine" unicode="&#xba;" horiz-adv-x="862" 
d="M254 1078q0 -236 177 -236t177 236.5t-177 236.5q-177 -1 -177 -237zM27 1078q0 200 110.5 310.5t294.5 110.5t294 -110.5t110 -307.5t-111.5 -310.5t-296.5 -113.5q-186 0 -293.5 110.5t-107.5 310.5z" />
    <glyph glyph-name="guillemotright" unicode="&#xbb;" horiz-adv-x="1120" 
d="M279 520l-238 467h293l256 -465l-260 -461h-289zM739 520l-239 467h293l256 -465l-261 -461h-288z" />
    <glyph glyph-name="onequarter" unicode="&#xbc;" horiz-adv-x="1918" 
d="M516 1415v-825h-217v616l-190 -102l-82 149l288 162h201zM700 0h-276l713 1415h276zM1520 332v254l-189 -254h189zM1714 827v-495h107l-21 -164h-86v-166h-194v166h-394v129l400 530h188z" />
    <glyph glyph-name="onehalf" unicode="&#xbd;" horiz-adv-x="1918" 
d="M516 1415v-825h-217v616l-190 -102l-82 149l288 162h201zM641 0h-276l712 1415h277zM1569 592q0 38 -24 64q-23 26 -73 26t-82 -28t-47 -107l-208 26q61 292 346 290q153 -1 231 -71t78 -194q0 -85 -38 -147t-94 -118q-56 -55 -94 -85t-79 -64h315l-22 -182h-611v152
q27 25 80 65t235 201q87 76 87 172z" />
    <glyph glyph-name="threequarters" unicode="&#xbe;" horiz-adv-x="1918" 
d="M438 719q131 -1 131 105t-129 106h-86v164h88q55 0 84 28t29 70q0 96 -117 94q-53 0 -88 -26t-47 -97l-192 27q23 116 99 188t236 72q158 0 232 -69t74 -176t-113 -181q67 -27 99 -80t32 -110q0 -125 -76 -202t-247 -77t-265 98q-69 76 -76 209h193q15 -143 139 -143z
M799 0h-277l713 1415h276zM1520 332v254l-189 -254h189zM1714 827v-495h107l-21 -164h-86v-166h-194v166h-394v129l400 530h188z" />
    <glyph glyph-name="questiondown" unicode="&#xbf;" horiz-adv-x="1021" 
d="M346 1069h283v-326h-283v326zM128 -317.5q-124 100.5 -124 267.5t64.5 236.5t98.5 103.5l89 88q88 89 88 193v35h283v-47q0 -138 -78 -218.5t-110 -111.5q-78 -76 -107 -121t-29 -121q0 -77 46 -121t137 -44t147.5 47t81.5 166l264 -33q-76 -420 -508 -420
q-219 0 -343 100.5z" />
    <glyph glyph-name="Agrave" unicode="&#xc0;" horiz-adv-x="1429" 
d="M885 590l-178 524l-177 -524h355zM569 1462h291l549 -1462h-328l-116 338h-512l-117 -338h-316zM645 1878l262 -297h-268l-326 297h332z" />
    <glyph glyph-name="Aacute" unicode="&#xc1;" horiz-adv-x="1429" 
d="M885 590l-178 524l-177 -524h355zM569 1462h291l549 -1462h-328l-116 338h-512l-117 -338h-316zM782 1878h332l-326 -297h-268z" />
    <glyph glyph-name="Acircumflex" unicode="&#xc2;" horiz-adv-x="1429" 
d="M885 590l-178 524l-177 -524h355zM569 1462h291l549 -1462h-328l-116 338h-512l-117 -338h-316zM567 1878h289l248 -297h-246l-147 148l-146 -148h-246z" />
    <glyph glyph-name="Atilde" unicode="&#xc3;" horiz-adv-x="1429" 
d="M885 590l-178 524l-177 -524h355zM569 1462h291l549 -1462h-328l-116 338h-512l-117 -338h-316zM309 1583q0 155 69 223t185 68q62 0 147 -45q32 -17 62 -31t62 -14q34 0 56 16t21 66h203q0 -154 -68 -222t-184 -67q-70 0 -147 46q-31 17 -60 31t-63 15q-34 0 -58 -17
q-22 -17 -22 -69h-203z" />
    <glyph glyph-name="Adieresis" unicode="&#xc4;" horiz-adv-x="1429" 
d="M885 590l-178 524l-177 -524h355zM569 1462h291l549 -1462h-328l-116 338h-512l-117 -338h-316zM788 1866h275v-264h-275v264zM362 1866h275v-264h-275v264z" />
    <glyph glyph-name="Aring" unicode="&#xc5;" horiz-adv-x="1429" 
d="M618 1630q0 -98 94 -98t93 98q1 98 -93 99q-94 -1 -94 -99zM885 590l-178 524l-177 -524h355zM465 1628q0 177 98.5 210.5t174.5 33.5t148 -62.5t72 -187.5t-90 -186l541 -1436h-328l-116 338h-512l-117 -338h-316l537 1432q-92 65 -92 196z" />
    <glyph glyph-name="AE" unicode="&#xc6;" horiz-adv-x="2154" 
d="M1120 690v512h-114l-283 -512h397zM2064 1462v-260h-649v-319h610v-262h-610v-361h692l-30 -260h-957v438h-536l-242 -438h-342l850 1462h1214z" />
    <glyph glyph-name="Ccedilla" unicode="&#xc7;" horiz-adv-x="1460" 
d="M714 -315q84 0 84.5 45t-25 59t-93.5 14h-76l66 166q-272 31 -420 234t-148 542t182 546.5t496 207.5q394 0 484 -192.5t110 -307.5l-303 -38q-23 129 -87 202.5t-204 73.5q-176 0 -267 -132t-91 -375t97 -374t249 -131t219.5 73t83.5 208h328q-21 -231 -166 -378.5
t-404 -162.5l-24 -69q196 -20 196 -175q0 -178 -294 -178q-77 0 -154 13v143q77 -14 161 -14z" />
    <glyph glyph-name="Egrave" unicode="&#xc8;" horiz-adv-x="1236" 
d="M150 1462h997v-260h-692v-319h651v-262h-651v-361h735l-31 -260h-1009v1462zM612 1878l262 -297h-268l-325 297h331z" />
    <glyph glyph-name="Eacute" unicode="&#xc9;" horiz-adv-x="1236" 
d="M150 1462h997v-260h-692v-319h651v-262h-651v-361h735l-31 -260h-1009v1462zM709 1878h331l-325 -297h-269z" />
    <glyph glyph-name="Ecircumflex" unicode="&#xca;" horiz-adv-x="1236" 
d="M150 1462h997v-260h-692v-319h651v-262h-651v-361h735l-31 -260h-1009v1462zM506 1878h289l247 -297h-245l-148 148l-145 -148h-246z" />
    <glyph glyph-name="Edieresis" unicode="&#xcb;" horiz-adv-x="1236" 
d="M150 1462h997v-260h-692v-319h651v-262h-651v-361h735l-31 -260h-1009v1462zM727 1866h274v-264h-274v264zM301 1866h274v-264h-274v264z" />
    <glyph glyph-name="Igrave" unicode="&#xcc;" horiz-adv-x="604" 
d="M150 1462h305v-1462h-305v1462zM248 1878l262 -297h-268l-326 297h332z" />
    <glyph glyph-name="Iacute" unicode="&#xcd;" horiz-adv-x="604" 
d="M150 1462h305v-1462h-305v1462zM365 1878h331l-325 -297h-269z" />
    <glyph glyph-name="Icircumflex" unicode="&#xce;" horiz-adv-x="604" 
d="M150 1462h305v-1462h-305v1462zM160 1878h289l247 -297h-245l-148 148l-145 -148h-246z" />
    <glyph glyph-name="Idieresis" unicode="&#xcf;" horiz-adv-x="604" 
d="M150 1462h305v-1462h-305v1462zM381 1866h274v-264h-274v264zM-45 1866h274v-264h-274v264z" />
    <glyph glyph-name="Eth" unicode="&#xd0;" horiz-adv-x="1546" 
d="M688 260q440 0 440 477q0 340 -143 402.5t-252 62.5h-241v-321h311v-252h-311v-369h196zM186 629h-166v252h166v581h547q336 0 523.5 -182t187.5 -539t-199 -549t-563 -192h-496v629z" />
    <glyph glyph-name="Ntilde" unicode="&#xd1;" horiz-adv-x="1472" 
d="M150 1462h274l602 -958v958h297v-1462h-272l-605 950v-950h-296v1462zM326 1583q0 155 68 223t186 68q61 0 146 -45q32 -17 62 -31t63 -14t55 16t22 66h202q0 -154 -68 -222t-183 -67q-69 0 -148 46q-31 17 -59 31t-64 15q-36 0 -58 -17t-22 -69h-202z" />
    <glyph glyph-name="Ograve" unicode="&#xd2;" horiz-adv-x="1597" 
d="M799 225q379 0 381 506q0 242 -94 374t-288 132q-192 0 -286 -132t-94 -375t94 -374t287 -131zM804 1499q326 0 508 -206q183 -206 183 -562q0 -355 -183 -562q-183 -206 -510 -206q-328 0 -513 206t-186 561t187 562t514 207zM772 1878l262 -297h-268l-326 297h332z" />
    <glyph glyph-name="Oacute" unicode="&#xd3;" horiz-adv-x="1597" 
d="M799 225q379 0 381 506q0 242 -94 374t-288 132q-192 0 -286 -132t-94 -375t94 -374t287 -131zM804 1499q326 0 508 -206q183 -206 183 -562q0 -355 -183 -562q-183 -206 -510 -206q-328 0 -513 206t-186 561t187 562t514 207zM846 1878h332l-326 -297h-268z" />
    <glyph glyph-name="Ocircumflex" unicode="&#xd4;" horiz-adv-x="1597" 
d="M799 225q379 0 381 506q0 242 -94 374t-288 132q-192 0 -286 -132t-94 -375t94 -374t287 -131zM804 1499q326 0 508 -206q183 -206 183 -562q0 -355 -183 -562q-183 -206 -510 -206q-328 0 -513 206t-186 561t187 562t514 207zM653 1878h289l248 -297h-246l-147 148
l-146 -148h-245z" />
    <glyph glyph-name="Otilde" unicode="&#xd5;" horiz-adv-x="1597" 
d="M799 225q379 0 381 506q0 242 -94 374t-288 132q-192 0 -286 -132t-94 -375t94 -374t287 -131zM804 1499q326 0 508 -206q183 -206 183 -562q0 -355 -183 -562q-183 -206 -510 -206q-328 0 -513 206t-186 561t187 562t514 207zM395 1583q0 155 69 223t185 68
q62 0 147 -45q32 -17 62 -31t62 -14q34 0 56 16t21 66h203q0 -154 -68 -222t-184 -67q-70 0 -147 46q-31 17 -60 31t-63 15q-34 0 -58 -17q-22 -17 -22 -69h-203z" />
    <glyph glyph-name="Odieresis" unicode="&#xd6;" horiz-adv-x="1597" 
d="M799 225q379 0 381 506q0 242 -94 374t-288 132q-192 0 -286 -132t-94 -375t94 -374t287 -131zM804 1499q326 0 508 -206q183 -206 183 -562q0 -355 -183 -562q-183 -206 -510 -206q-328 0 -513 206t-186 561t187 562t514 207zM874 1866h275v-264h-275v264zM449 1866h274
v-264h-274v264z" />
    <glyph glyph-name="multiply" unicode="&#xd7;" 
d="M430 696l-285 289l174 174l287 -287l287 287l174 -174l-285 -289l285 -286l-174 -174l-287 286l-287 -286l-174 174z" />
    <glyph glyph-name="Oslash" unicode="&#xd8;" horiz-adv-x="1597" 
d="M799 1237q-193 0 -287 -132t-94 -348t57 -337l510 772q-84 45 -186 45zM1180 718q0 230 -76 357l-520 -788q86 -61 215 -62q193 0 287 131.5t94 361.5zM299 156q-197 205 -197 567t187.5 569t511.5 207q190 0 336 -76l104 158l137 -90l-106 -160q223 -205 223 -581
q0 -377 -182.5 -582t-511.5 -205q-208 0 -371 90l-115 -172l-137 90z" />
    <glyph glyph-name="Ugrave" unicode="&#xd9;" horiz-adv-x="1419" 
d="M709 -37q-588 0 -588 635v864h305v-870q0 -186 66 -276t220 -91q154 0 218 90t63 277v870h305v-870q0 -481 -343 -593q-110 -36 -246 -36zM662 1878l262 -297h-269l-325 297h332z" />
    <glyph glyph-name="Uacute" unicode="&#xda;" horiz-adv-x="1419" 
d="M709 -37q-588 0 -588 635v864h305v-870q0 -186 66 -276t220 -91q154 0 218 90t63 277v870h305v-870q0 -481 -343 -593q-110 -36 -246 -36zM778 1878h332l-326 -297h-268z" />
    <glyph glyph-name="Ucircumflex" unicode="&#xdb;" horiz-adv-x="1419" 
d="M709 -37q-588 0 -588 635v864h305v-870q0 -186 66 -276t220 -91q154 0 218 90t63 277v870h305v-870q0 -481 -343 -593q-110 -36 -246 -36zM563 1878h289l248 -297h-246l-147 148l-146 -148h-246z" />
    <glyph glyph-name="Udieresis" unicode="&#xdc;" horiz-adv-x="1419" 
d="M709 -37q-588 0 -588 635v864h305v-870q0 -186 66 -276t220 -91q154 0 218 90t63 277v870h305v-870q0 -481 -343 -593q-110 -36 -246 -36zM784 1866h275v-264h-275v264zM358 1866h275v-264h-275v264z" />
    <glyph glyph-name="Yacute" unicode="&#xdd;" horiz-adv-x="1345" 
d="M831 0h-305v596l-506 866h340l316 -592l325 592h324l-494 -866v-596zM750 1878h331l-325 -297h-269z" />
    <glyph glyph-name="Thorn" unicode="&#xde;" horiz-adv-x="1310" 
d="M670 524q220 0 244 87t24 137q0 107 -59 158.5t-211 51.5h-217v-434h219zM1239 754q0 -484 -559 -484h-229v-270h-301v1462h301v-252h221q567 0 567 -456z" />
    <glyph glyph-name="germandbls" unicode="&#xdf;" horiz-adv-x="1236" 
d="M786 1079q0 183 -182 183q-205 0 -205 -265v-997h-272v1026q0 209 127.5 331t341.5 122q215 0 341 -91.5t126 -277.5q0 -102 -40 -173t-126 -124q141 -43 206.5 -140.5t65.5 -254.5q0 -300 -160.5 -368t-281.5 -68t-219 30l41 211q70 -18 133 -18q117 0 163 57t46 179
t-71.5 169t-219.5 47h-61v220h65q182 0 182 202z" />
    <glyph glyph-name="agrave" unicode="&#xe0;" horiz-adv-x="1148" 
d="M348 294q0 -44 37 -75t125 -31t167 59t79 175v55l-127 -6q-238 -11 -271 -105q-10 -28 -10 -72zM762 135q-142 -162 -320 -162q-182 0 -281 81q-100 81 -100 239q0 286 358 344q99 16 202 20l137 7v53q0 98 -54 135t-129 37q-170 0 -194 -129l-262 24q29 168 147 243
q119 75 320 75q450 0 446 -426v-676h-270v135zM229 1534h326l246 -317h-264z" />
    <glyph glyph-name="aacute" unicode="&#xe1;" horiz-adv-x="1148" 
d="M348 294q0 -44 37 -75t125 -31t167 59t79 175v55l-127 -6q-238 -11 -271 -105q-10 -28 -10 -72zM762 135q-142 -162 -320 -162q-182 0 -281 81q-100 81 -100 239q0 286 358 344q99 16 202 20l137 7v53q0 98 -54 135t-129 37q-170 0 -194 -129l-262 24q29 168 147 243
q119 75 320 75q450 0 446 -426v-676h-270v135zM631 1534h325l-307 -317h-264z" />
    <glyph glyph-name="acircumflex" unicode="&#xe2;" horiz-adv-x="1148" 
d="M348 294q0 -44 37 -75t125 -31t167 59t79 175v55l-127 -6q-238 -11 -271 -105q-10 -28 -10 -72zM762 135q-142 -162 -320 -162q-182 0 -281 81q-100 81 -100 239q0 286 358 344q99 16 202 20l137 7v53q0 98 -54 135t-129 37q-170 0 -194 -129l-262 24q29 168 147 243
q119 75 320 75q450 0 446 -426v-676h-270v135zM424 1534h289l245 -317h-245l-146 169l-143 -169h-246z" />
    <glyph glyph-name="atilde" unicode="&#xe3;" horiz-adv-x="1148" 
d="M348 294q0 -44 37 -75t125 -31t167 59t79 175v55l-127 -6q-238 -11 -271 -105q-10 -28 -10 -72zM762 135q-142 -162 -320 -162q-182 0 -281 81q-100 81 -100 239q0 286 358 344q99 16 202 20l137 7v53q0 98 -54 135t-129 37q-170 0 -194 -129l-262 24q29 168 147 243
q119 75 320 75q450 0 446 -426v-676h-270v135zM182 1233q0 155 66 223t178 68q57 0 116 -30q60 -30 90 -46q30 -14 62 -14t55 16q22 16 21 66h193q0 -154 -66 -222t-176 -67q-62 0 -146 46q-33 17 -61 31t-62 15q-79 0 -77 -86h-193z" />
    <glyph glyph-name="adieresis" unicode="&#xe4;" horiz-adv-x="1148" 
d="M348 294q0 -44 37 -75t125 -31t167 59t79 175v55l-127 -6q-238 -11 -271 -105q-10 -28 -10 -72zM762 135q-142 -162 -320 -162q-182 0 -281 81q-100 81 -100 239q0 286 358 344q99 16 202 20l137 7v53q0 98 -54 135t-129 37q-170 0 -194 -129l-262 24q29 168 147 243
q119 75 320 75q450 0 446 -426v-676h-270v135zM647 1501h266v-256h-266v256zM233 1501h267v-256h-267v256z" />
    <glyph glyph-name="aring" unicode="&#xe5;" horiz-adv-x="1148" 
d="M348 294q0 -44 37 -75t125 -31t167 59t79 175v55l-127 -6q-238 -11 -271 -105q-10 -28 -10 -72zM762 135q-142 -162 -320 -162q-182 0 -281 81q-100 81 -100 239q0 286 358 344q99 16 202 20l137 7v53q0 98 -54 135t-129 37q-170 0 -194 -129l-262 24q29 168 147 243
q119 75 320 75q450 0 446 -426v-676h-270v135zM571 1530q-88 0 -88 -94q-1 -47 23 -71t65 -24t66 24t25 72q0 49 -25 71t-66 22zM571 1667q160 0 219 -130q19 -44 19 -102q0 -115 -68 -171t-170 -57q-101 -1 -168 59t-67 170q0 111 67 171t168 60z" />
    <glyph glyph-name="ae" unicode="&#xe6;" horiz-adv-x="1837" 
d="M1473 653q0 234 -164 234t-221.5 -67.5t-63.5 -166.5h449zM348 294q0 -44 36 -75t94 -31q170 0 217.5 84t47.5 150v55l-127 -6q-227 -10 -247.5 -71.5t-20.5 -105.5zM580 1102q115 0 197.5 -37t142.5 -131q74 96 159.5 132t182.5 36q242 0 364.5 -141.5t122.5 -380.5
v-115h-729q4 -129 64.5 -202t179.5 -73q164 0 194 144h279q-29 -180 -143.5 -273.5t-331.5 -93.5q-121 0 -231.5 45t-174.5 162q-61 -86 -155.5 -143.5t-249.5 -57.5q-277 0 -333.5 117.5t-56.5 215.5t48.5 167.5t152 121.5t346.5 62l137 7v53q0 172 -176 172
q-164 0 -188 -129l-262 24q29 168 146.5 243t314.5 75z" />
    <glyph glyph-name="ccedilla" unicode="&#xe7;" horiz-adv-x="1165" 
d="M541 -303q79 0 80 57q0 58 -115 58h-74l64 163q-211 33 -308.5 182t-97.5 391t140.5 398t390.5 156q310 0 376 -145.5t76 -227.5l-289 -39q-10 82 -47 132t-127 50q-223 0 -223 -338t221 -337q170 0 189 190h290q-16 -182 -120.5 -294.5t-315.5 -123.5l-22 -65
q151 -22 168.5 -83t17.5 -89q0 -176 -283 -176q-76 0 -149 12v141q79 -12 158 -12z" />
    <glyph glyph-name="egrave" unicode="&#xe8;" horiz-adv-x="1206" 
d="M842 653q0 232 -224 234q-108 0 -171 -66q-62 -66 -66 -168h461zM625 -33q-267 -1 -401 147t-134 415t146 420t391 153q243 0 367 -141t124 -381v-115h-741q4 -129 65 -202t185 -73q170 0 200 144h279q-29 -180 -144 -274q-116 -93 -337 -93zM262 1534h326l246 -317h-265
z" />
    <glyph glyph-name="eacute" unicode="&#xe9;" horiz-adv-x="1206" 
d="M842 653q0 232 -224 234q-108 0 -171 -66q-62 -66 -66 -168h461zM625 -33q-267 -1 -401 147t-134 415t146 420t391 153q243 0 367 -141t124 -381v-115h-741q4 -129 65 -202t185 -73q170 0 200 144h279q-29 -180 -144 -274q-116 -93 -337 -93zM666 1534h325l-307 -317
h-264z" />
    <glyph glyph-name="ecircumflex" unicode="&#xea;" horiz-adv-x="1206" 
d="M842 653q0 232 -224 234q-108 0 -171 -66q-62 -66 -66 -168h461zM625 -33q-267 -1 -401 147t-134 415t146 420t391 153q243 0 367 -141t124 -381v-115h-741q4 -129 65 -202t185 -73q170 0 200 144h279q-29 -180 -144 -274q-116 -93 -337 -93zM477 1534h289l246 -317h-246
l-145 169l-144 -169h-246z" />
    <glyph glyph-name="edieresis" unicode="&#xeb;" horiz-adv-x="1206" 
d="M842 653q0 232 -224 234q-108 0 -171 -66q-62 -66 -66 -168h461zM625 -33q-267 -1 -401 147t-134 415t146 420t391 153q243 0 367 -141t124 -381v-115h-741q4 -129 65 -202t185 -73q170 0 200 144h279q-29 -180 -144 -274q-116 -93 -337 -93zM696 1501h267v-256h-267v256
zM283 1501h266v-256h-266v256z" />
    <glyph glyph-name="igrave" unicode="&#xec;" horiz-adv-x="544" 
d="M129 1069h287v-1069h-287v1069zM-117 1534h326l246 -317h-265z" />
    <glyph glyph-name="iacute" unicode="&#xed;" horiz-adv-x="544" 
d="M129 1069h287v-1069h-287v1069zM346 1534h326l-307 -317h-265z" />
    <glyph glyph-name="icircumflex" unicode="&#xee;" horiz-adv-x="544" 
d="M129 1069h287v-1069h-287v1069zM127 1534h289l246 -317h-246l-146 169l-143 -169h-246z" />
    <glyph glyph-name="idieresis" unicode="&#xef;" horiz-adv-x="544" 
d="M129 1069h287v-1069h-287v1069zM346 1501h266v-256h-266v256zM-68 1501h267v-256h-267v256z" />
    <glyph glyph-name="eth" unicode="&#xf0;" horiz-adv-x="1261" 
d="M874 496q0 146 -67 217q-35 39 -80 52t-109 13q-98 0 -164.5 -74.5t-66.5 -216t66.5 -216t174.5 -74.5t177 75.5t69 208.5v15zM786 1389q385 -203 385 -794q0 -310 -149 -469t-394 -159t-391.5 138.5t-146.5 377.5t141 382t347 143q207 0 311 -142q-23 113 -84.5 204
t-190.5 149l-147 -148l-107 113l89 88q-80 18 -181 24l41 220q196 -22 322 -62l123 121l106 -113z" />
    <glyph glyph-name="ntilde" unicode="&#xf1;" 
d="M737 1102q183 0 271 -95t88 -300v-707h-287v668q0 114 -43 154q-42 40 -106 40q-107 0 -179 -63q-67 -67 -67 -156v-643h-287v1069h279v-147q121 180 331 180zM215 1233q0 155 66 223t178 68q57 0 116 -30q60 -30 90 -46q31 -14 63 -14t54 16t21 66h192q1 -154 -65 -222
t-176 -67q-62 0 -146 46l-62 31t-60 15q-79 0 -78 -86h-193z" />
    <glyph glyph-name="ograve" unicode="&#xf2;" horiz-adv-x="1261" 
d="M387 534q-1 -338 243 -337q244 -1 244 337t-244 338t-243 -338zM232 114q-142 148 -142 417t147 420t395 151t395 -151q146 -151 145 -415q-1 -265 -147 -417t-399 -152q-252 -1 -394 147zM283 1534h325l246 -317h-264z" />
    <glyph glyph-name="oacute" unicode="&#xf3;" horiz-adv-x="1261" 
d="M387 534q-1 -338 243 -337q244 -1 244 337t-244 338t-243 -338zM232 114q-142 148 -142 417t147 420t395 151t395 -151q146 -151 145 -415q-1 -265 -147 -417t-399 -152q-252 -1 -394 147zM672 1534h325l-307 -317h-264z" />
    <glyph glyph-name="ocircumflex" unicode="&#xf4;" horiz-adv-x="1261" 
d="M387 534q-1 -338 243 -337q244 -1 244 337t-244 338t-243 -338zM232 114q-142 148 -142 417t147 420t395 151t395 -151q146 -151 145 -415q-1 -265 -147 -417t-399 -152q-252 -1 -394 147zM485 1534h289l246 -317h-246l-145 169l-144 -169h-245z" />
    <glyph glyph-name="otilde" unicode="&#xf5;" horiz-adv-x="1261" 
d="M387 534q-1 -338 243 -337q244 -1 244 337t-244 338t-243 -338zM232 114q-142 148 -142 417t147 420t395 151t395 -151q146 -151 145 -415q-1 -265 -147 -417t-399 -152q-252 -1 -394 147zM240 1233q0 155 66 223t177 68q55 0 116 -30t91 -46q30 -14 62 -14t54 16t21 66
h193q0 -154 -66 -222t-176 -67q-63 0 -145 46q-33 17 -62 31t-61 15q-78 0 -78 -86h-192z" />
    <glyph glyph-name="odieresis" unicode="&#xf6;" horiz-adv-x="1261" 
d="M387 534q-1 -338 243 -337q244 -1 244 337t-244 338t-243 -338zM232 114q-142 148 -142 417t147 420t395 151t395 -151q146 -151 145 -415q-1 -265 -147 -417t-399 -152q-252 -1 -394 147zM705 1501h266v-256h-266v256zM291 1501h266v-256h-266v256z" />
    <glyph glyph-name="divide" unicode="&#xf7;" 
d="M158 821h897v-248h-897v248zM475 446h258v-276h-258v276zM475 1210h258v-276h-258v276z" />
    <glyph glyph-name="oslash" unicode="&#xf8;" horiz-adv-x="1261" 
d="M387 537q0 -121 25 -183l333 492q-47 27 -114 26q-244 0 -244 -335zM874 537q0 102 -26 182l-336 -496q47 -27 119 -26q243 0 243 340zM242 104q-152 152 -152 424t146.5 423t394.5 151q139 0 254 -51l88 131l129 -88l-88 -129q157 -153 157 -423t-146 -422.5
t-394 -152.5q-145 0 -260 51l-101 -149l-129 88z" />
    <glyph glyph-name="ugrave" unicode="&#xf9;" horiz-adv-x="1202" 
d="M117 362v707h286v-668q0 -115 41 -155q40 -40 104 -39q64 0 100 16t69 46q71 65 71 157v643h287v-1069h-278v147q-126 -180 -317 -180t-277 95t-86 300zM254 1534h326l245 -317h-264z" />
    <glyph glyph-name="uacute" unicode="&#xfa;" horiz-adv-x="1202" 
d="M117 362v707h286v-668q0 -115 41 -155q40 -40 104 -39q64 0 100 16t69 46q71 65 71 157v643h287v-1069h-278v147q-126 -180 -317 -180t-277 95t-86 300zM637 1534h326l-308 -317h-264z" />
    <glyph glyph-name="ucircumflex" unicode="&#xfb;" horiz-adv-x="1202" 
d="M117 362v707h286v-668q0 -115 41 -155q40 -40 104 -39q64 0 100 16t69 46q71 65 71 157v643h287v-1069h-278v147q-126 -180 -317 -180t-277 95t-86 300zM455 1534h288l246 -317h-246l-145 169l-143 -169h-246z" />
    <glyph glyph-name="udieresis" unicode="&#xfc;" horiz-adv-x="1202" 
d="M117 362v707h286v-668q0 -115 41 -155q40 -40 104 -39q64 0 100 16t69 46q71 65 71 157v643h287v-1069h-278v147q-126 -180 -317 -180t-277 95t-86 300zM674 1501h266v-256h-266v256zM260 1501h266v-256h-266v256z" />
    <glyph glyph-name="yacute" unicode="&#xfd;" horiz-adv-x="1161" 
d="M274 -168q59 0 95 28q35 28 59 97l33 90l-445 1022h332l250 -702l233 702h314l-432 -1100q-37 -93 -70 -161t-75 -114q-85 -93 -244 -91q-114 0 -215 32l47 213q59 -16 118 -16zM623 1534h325l-307 -317h-264z" />
    <glyph glyph-name="thorn" unicode="&#xfe;" horiz-adv-x="1275" 
d="M887 532q0 336 -228 336q-98 0 -167 -59q-80 -76 -80 -250v-33q0 -195 73 -268q65 -59 168 -59q163 0 198.5 121.5t35.5 211.5zM747 1102q217 0 328 -151.5t111 -411.5t-125.5 -416t-339.5 -156q-80 0 -159 29t-148 115v-508h-287v1859h287v-522q116 162 333 162z" />
    <glyph glyph-name="ydieresis" unicode="&#xff;" horiz-adv-x="1161" 
d="M274 -168q59 0 95 28q35 28 59 97l33 90l-445 1022h332l250 -702l233 702h314l-432 -1100q-37 -93 -70 -161t-75 -114q-85 -93 -244 -91q-114 0 -215 32l47 213q59 -16 118 -16zM655 1501h267v-256h-267v256zM242 1501h266v-256h-266v256z" />
    <glyph glyph-name="Amacron" unicode="&#x100;" horiz-adv-x="1429" 
d="M885 590l-178 524l-177 -524h355zM569 1462h291l549 -1462h-328l-116 338h-512l-117 -338h-316zM395 1845h635v-227h-635v227z" />
    <glyph glyph-name="amacron" unicode="&#x101;" horiz-adv-x="1148" 
d="M348 294q0 -44 37 -75t125 -31t167 59t79 175v55l-127 -6q-238 -11 -271 -105q-10 -28 -10 -72zM762 135q-142 -162 -320 -162q-182 0 -281 81q-100 81 -100 239q0 286 358 344q99 16 202 20l137 7v53q0 98 -54 135t-129 37q-170 0 -194 -129l-262 24q29 168 147 243
q119 75 320 75q450 0 446 -426v-676h-270v135zM264 1473h598v-220h-598v220z" />
    <glyph glyph-name="Abreve" unicode="&#x102;" horiz-adv-x="1429" 
d="M885 590l-178 524l-177 -524h355zM569 1462h291l549 -1462h-328l-116 338h-512l-117 -338h-316zM592 1898q0 -78 37 -110t84 -31q47 0 83 32t35 109h211q0 -160 -90 -238t-240 -79q-150 0 -240 79q-89 79 -89 238h209z" />
    <glyph glyph-name="abreve" unicode="&#x103;" horiz-adv-x="1148" 
d="M348 294q0 -44 37 -75t125 -31t167 59t79 175v55l-127 -6q-238 -11 -271 -105q-10 -28 -10 -72zM762 135q-142 -162 -320 -162q-182 0 -281 81q-100 81 -100 239q0 286 358 344q99 16 202 20l137 7v53q0 98 -54 135t-129 37q-170 0 -194 -129l-262 24q29 168 147 243
q119 75 320 75q450 0 446 -426v-676h-270v135zM453 1528q1 -78 35 -109t80 -31t81 32q35 30 35 108h205q0 -160 -87 -239q-88 -79 -234 -79t-231 79t-85 239h201z" />
    <glyph glyph-name="Aogonek" unicode="&#x104;" horiz-adv-x="1429" 
d="M885 590l-178 524l-177 -524h355zM1257 -166q0 -67 74 -67q38 0 72 6v-179q-47 -6 -139 -6q-248 0 -248 181q0 68 43 123t123 108h-101l-116 338h-512l-117 -338h-316l549 1462h291l549 -1462q-152 -85 -152 -166z" />
    <glyph glyph-name="aogonek" unicode="&#x105;" horiz-adv-x="1148" 
d="M348 294q0 -44 37 -75t125 -31t167 59t79 175v55l-127 -6q-236 -10 -258.5 -71.5t-22.5 -105.5zM762 135q-142 -162 -320 -162q-182 0 -281.5 81t-99.5 239q0 287 228.5 323.5t331.5 40.5l137 7v53q0 98 -54.5 135t-128.5 37q-170 0 -194 -129l-262 24q29 168 147.5 243
t319.5 75q348 0 397 -164t49 -262v-676q-143 -82 -143 -154q0 -71 69 -71q32 0 68 4v-172q-44 -6 -122 -6q-138 0 -191.5 49t-53.5 121t40 125t116 104h-53v135z" />
    <glyph glyph-name="Cacute" unicode="&#x106;" horiz-adv-x="1460" 
d="M780 1499q394 0 531 -293q43 -92 63 -207l-303 -38q-23 129 -87 203t-204 73q-176 0 -267 -132t-91 -375t97 -374t249 -131t220 73q67 73 83 208h328q-21 -242 -180 -392q-159 -151 -463 -151q-305 0 -480 206q-174 206 -174 561q0 354 183 562q182 207 495 207z
M842 1878h332l-326 -297h-268z" />
    <glyph glyph-name="cacute" unicode="&#x107;" horiz-adv-x="1165" 
d="M608 -33q-387 0 -487 334q-31 104 -31 231q0 257 141 414q141 156 390 156q207 0 319 -100t133 -273l-289 -39q-10 82 -47 132t-127 50q-223 0 -223 -339t221 -336q170 0 189 190h290q-16 -193 -132 -307t-347 -113zM645 1534h326l-307 -317h-265z" />
    <glyph glyph-name="Ccircumflex" unicode="&#x108;" horiz-adv-x="1460" 
d="M780 1499q394 0 531 -293q43 -92 63 -207l-303 -38q-23 129 -87 203t-204 73q-176 0 -267 -132t-91 -375t97 -374t249 -131t220 73q67 73 83 208h328q-21 -242 -180 -392q-159 -151 -463 -151q-305 0 -480 206q-174 206 -174 561q0 354 183 562q182 207 495 207z
M627 1878h288l248 -297h-245l-148 148l-145 -148h-246z" />
    <glyph glyph-name="ccircumflex" unicode="&#x109;" horiz-adv-x="1165" 
d="M608 -33q-387 0 -487 334q-31 104 -31 231q0 257 141 414q141 156 390 156q207 0 319 -100t133 -273l-289 -39q-10 82 -47 132t-127 50q-223 0 -223 -339t221 -336q170 0 189 190h290q-16 -193 -132 -307t-347 -113zM463 1534h289l245 -317h-245l-146 169l-143 -169h-246
z" />
    <glyph glyph-name="Cdotaccent" unicode="&#x10a;" horiz-adv-x="1460" 
d="M780 1499q394 0 531 -293q43 -92 63 -207l-303 -38q-23 129 -87 203t-204 73q-176 0 -267 -132t-91 -375t97 -374t249 -131t220 73q67 73 83 208h328q-21 -242 -180 -392q-159 -151 -463 -151q-305 0 -480 206q-174 206 -174 561q0 354 183 562q182 207 495 207z
M629 1872h286v-277h-286v277z" />
    <glyph glyph-name="cdotaccent" unicode="&#x10b;" horiz-adv-x="1165" 
d="M608 -33q-387 0 -487 334q-31 104 -31 231q0 257 141 414q141 156 390 156q207 0 319 -100t133 -273l-289 -39q-10 82 -47 132t-127 50q-223 0 -223 -339t221 -336q170 0 189 190h290q-16 -193 -132 -307t-347 -113zM473 1503h270v-260h-270v260z" />
    <glyph glyph-name="Ccaron" unicode="&#x10c;" horiz-adv-x="1460" 
d="M780 1499q394 0 531 -293q43 -92 63 -207l-303 -38q-23 129 -87 203t-204 73q-176 0 -267 -132t-91 -375t97 -374t249 -131t220 73q67 73 83 208h328q-21 -242 -180 -392q-159 -151 -463 -151q-305 0 -480 206q-174 206 -174 561q0 354 183 562q182 207 495 207z
M379 1886h246l147 -149l146 149h245l-248 -297h-288z" />
    <glyph glyph-name="ccaron" unicode="&#x10d;" horiz-adv-x="1165" 
d="M608 -33q-387 0 -487 334q-31 104 -31 231q0 257 141 414q141 156 390 156q207 0 319 -100t133 -273l-289 -39q-10 82 -47 132t-127 50q-223 0 -223 -339t221 -336q170 0 189 190h290q-16 -193 -132 -307t-347 -113zM752 1217h-289l-246 317h246l145 -170l144 170h245z
" />
    <glyph glyph-name="Dcaron" unicode="&#x10e;" horiz-adv-x="1509" 
d="M1092 736q0 466 -396 466h-241v-942h196q336 0 416 282q25 87 25 194zM150 1462h546q336 0 524 -182t187 -540q1 -358 -199 -549q-199 -191 -563 -191h-495v1462zM256 1886h246l147 -149l146 149h245l-247 -297h-289z" />
    <glyph glyph-name="dcaron" unicode="&#x10f;" horiz-adv-x="1574" 
d="M862 547q0 192 -74 264q-59 59 -167 59q-163 0 -213 -178q-18 -63 -18 -155t16 -157q48 -179 208 -179q102 0 168 59q41 41 61 99q19 58 19 151v37zM860 1462h287v-1462h-279v141q-124 -174 -340 -174t-327 152t-111 411t123 415q123 157 326 157t321 -139v499z
M1348 1462h268l-123 -499h-211z" />
    <glyph glyph-name="Dcroat" unicode="&#x110;" horiz-adv-x="1546" 
d="M733 1202h-241v-321h311v-252h-311v-369h196q336 0 416 282q25 87 24 195q0 465 -395 465zM186 629h-166v252h166v581h547q336 0 523 -182q188 -182 188 -540t-200 -549t-562 -191h-496v629z" />
    <glyph glyph-name="dcroat" unicode="&#x111;" horiz-adv-x="1286" 
d="M864 514q0 295 -241 295q-160 0 -197 -112.5t-37 -188.5q0 -162 65.5 -234.5t164.5 -72.5t165 59q80 78 80 219v35zM862 1147h-319v176h319v139h287v-139h137v-176h-137v-1147h-279v141q-123 -174 -335 -174t-328.5 145t-116.5 384t125.5 391.5t328.5 152.5
q202 0 318 -141v248z" />
    <glyph glyph-name="Emacron" unicode="&#x112;" horiz-adv-x="1236" 
d="M150 1462h997v-260h-692v-319h651v-262h-651v-361h735l-31 -260h-1009v1462zM342 1845h635v-227h-635v227z" />
    <glyph glyph-name="emacron" unicode="&#x113;" horiz-adv-x="1206" 
d="M842 653q0 232 -224 234q-108 0 -171 -66q-62 -66 -66 -168h461zM625 -33q-267 -1 -401 147t-134 415t146 420t391 153q243 0 367 -141t124 -381v-115h-741q4 -129 65 -202t185 -73q170 0 200 144h279q-29 -180 -144 -274q-116 -93 -337 -93zM326 1473h598v-220h-598v220
z" />
    <glyph glyph-name="Ebreve" unicode="&#x114;" horiz-adv-x="1236" 
d="M150 1462h997v-260h-692v-319h651v-262h-651v-361h735l-31 -260h-1009v1462zM539 1898q1 -78 37 -110t83 -31q47 0 83 32t36 109h211q0 -160 -90 -238t-241 -79q-152 0 -240 79t-88 238h209z" />
    <glyph glyph-name="ebreve" unicode="&#x115;" horiz-adv-x="1206" 
d="M842 653q0 232 -224 234q-108 0 -171 -66q-62 -66 -66 -168h461zM625 -33q-267 -1 -401 147t-134 415t146 420t391 153q243 0 367 -141t124 -381v-115h-741q4 -129 65 -202t185 -73q170 0 200 144h279q-29 -180 -144 -274q-116 -93 -337 -93zM508 1528q0 -78 35 -109
t81 -31t81 32q35 30 34 108h205q0 -160 -87 -239t-233 -79t-232 79q-85 79 -85 239h201z" />
    <glyph glyph-name="Edotaccent" unicode="&#x116;" horiz-adv-x="1236" 
d="M150 1462h997v-260h-692v-319h651v-262h-651v-361h735l-31 -260h-1009v1462zM516 1872h287v-277h-287v277z" />
    <glyph glyph-name="edotaccent" unicode="&#x117;" horiz-adv-x="1206" 
d="M842 653q0 232 -224 234q-108 0 -171 -66q-62 -66 -66 -168h461zM625 -33q-267 -1 -401 147t-134 415t146 420t391 153q243 0 367 -141t124 -381v-115h-741q4 -129 65 -202t185 -73q170 0 200 144h279q-29 -180 -144 -274q-116 -93 -337 -93zM489 1503h271v-260h-271v260
z" />
    <glyph glyph-name="Eogonek" unicode="&#x118;" horiz-adv-x="1236" 
d="M766 -231q0 68 43 123t123 108h-782v1462h997v-260h-692v-319h651v-262h-651v-361h735l-31 -260q-151 -85 -151 -159t73 -74q38 0 72 6v-179q-47 -6 -139 -6q-248 0 -248 181z" />
    <glyph glyph-name="eogonek" unicode="&#x119;" horiz-adv-x="1206" 
d="M842 653q0 234 -224 234q-162 0 -198.5 -92.5t-38.5 -141.5h461zM718 -399q-245 0 -245 176q0 101 113 192q-248 10 -372 155.5t-124 409.5t146 416t390 152q245 0 368.5 -141.5t123.5 -380.5v-115h-741q4 -129 65.5 -202t184.5 -73q170 0 200 144h279
q-47 -263 -262 -334q-142 -81 -142 -153t70 -72q30 0 68 4v-172q-43 -6 -122 -6z" />
    <glyph glyph-name="Ecaron" unicode="&#x11a;" horiz-adv-x="1236" 
d="M150 1462h997v-260h-692v-319h651v-262h-651v-361h735l-31 -260h-1009v1462zM266 1886h246l147 -149l146 149h246l-248 -297h-289z" />
    <glyph glyph-name="ecaron" unicode="&#x11b;" horiz-adv-x="1206" 
d="M842 653q0 232 -224 234q-108 0 -171 -66q-62 -66 -66 -168h461zM625 -33q-267 -1 -401 147t-134 415t146 420t391 153q243 0 367 -141t124 -381v-115h-741q4 -129 65 -202t185 -73q170 0 200 144h279q-29 -180 -144 -274q-116 -93 -337 -93zM768 1217h-289l-246 317h246
l146 -170l143 170h246z" />
    <glyph glyph-name="Gcircumflex" unicode="&#x11c;" horiz-adv-x="1486" 
d="M420 731q0 -508 367 -508q189 0 315 80v244h-279v254h561v-619q-112 -104 -268 -162t-326 -57q-337 -1 -512 205q-176 206 -176 560t181 563q181 208 491 208q263 0 406 -123t182 -327l-303 -39q-26 120 -86 175q-60 54 -199 54q-178 0 -266 -133t-88 -375zM639 1878h289
l248 -297h-246l-148 148l-145 -148h-246z" />
    <glyph glyph-name="gcircumflex" unicode="&#x11d;" horiz-adv-x="1275" 
d="M864 571q0 176 -78 247q-57 52 -163 52q-162 0 -213 -163q-18 -57 -19 -138q0 -171 65 -241t160 -70q248 0 248 285v28zM870 1069h279v-919q0 -425 -273 -532q-98 -38 -232 -38q-255 0 -376 87q-112 84 -133 265h291q15 -77 61 -102t139 -26t138 29q82 55 93 192
q5 63 5 131v32q-107 -157 -327 -157q-221 0 -333 145t-112 386t124 390q124 150 332 150q207 0 324 -154v121zM512 1534h289l246 -317h-246l-146 169l-143 -169h-246z" />
    <glyph glyph-name="Gbreve" unicode="&#x11e;" horiz-adv-x="1486" 
d="M420 731q0 -508 367 -508q189 0 315 80v244h-279v254h561v-619q-112 -104 -268 -162t-326 -57q-337 -1 -512 205q-176 206 -176 560t181 563q181 208 491 208q263 0 406 -123t182 -327l-303 -39q-26 120 -86 175q-60 54 -199 54q-178 0 -266 -133t-88 -375zM664 1898
q0 -78 36 -110t84 -31q47 0 83 32t36 109h211q0 -160 -90 -238t-241 -79q-151 0 -239 79t-89 238h209z" />
    <glyph glyph-name="gbreve" unicode="&#x11f;" horiz-adv-x="1275" 
d="M864 571q0 176 -78 247q-57 52 -163 52q-162 0 -213 -163q-18 -57 -19 -138q0 -171 65 -241t160 -70q248 0 248 285v28zM870 1069h279v-919q0 -425 -273 -532q-98 -38 -232 -38q-255 0 -376 87q-112 84 -133 265h291q15 -77 61 -102t139 -26t138 29q82 55 93 192
q5 63 5 131v32q-107 -157 -327 -157q-221 0 -333 145t-112 386t124 390q124 150 332 150q207 0 324 -154v121zM541 1528q1 -78 35 -109t80 -31t81 32q35 30 35 108h205q0 -160 -87 -239q-88 -79 -234 -79t-231 79t-85 239h201z" />
    <glyph glyph-name="Gdotaccent" unicode="&#x120;" horiz-adv-x="1486" 
d="M420 731q0 -508 367 -508q189 0 315 80v244h-279v254h561v-619q-112 -104 -268 -162t-326 -57q-337 -1 -512 205q-176 206 -176 560t181 563q181 208 491 208q263 0 406 -123t182 -327l-303 -39q-26 120 -86 175q-60 54 -199 54q-178 0 -266 -133t-88 -375zM641 1872h287
v-277h-287v277z" />
    <glyph glyph-name="gdotaccent" unicode="&#x121;" horiz-adv-x="1275" 
d="M864 571q0 176 -78 247q-57 52 -163 52q-162 0 -213 -163q-18 -57 -19 -138q0 -171 65 -241t160 -70q248 0 248 285v28zM870 1069h279v-919q0 -425 -273 -532q-98 -38 -232 -38q-255 0 -376 87q-112 84 -133 265h291q15 -77 61 -102t139 -26t138 29q82 55 93 192
q5 63 5 131v32q-107 -157 -327 -157q-221 0 -333 145t-112 386t124 390q124 150 332 150q207 0 324 -154v121zM502 1503h270v-260h-270v260z" />
    <glyph glyph-name="Gcommaaccent" unicode="&#x122;" horiz-adv-x="1486" 
d="M420 731q0 -508 367 -508q189 0 315 80v244h-279v254h561v-619q-112 -104 -268 -162t-326 -57q-337 -1 -512 205q-176 206 -176 560t181 563q181 208 491 208q263 0 406 -123t182 -327l-303 -39q-26 120 -86 175q-60 54 -199 54q-178 0 -266 -133t-88 -375zM643 -135h318
l-226 -330h-258z" />
    <glyph glyph-name="gcommaaccent" unicode="&#x123;" horiz-adv-x="1275" 
d="M864 571q0 176 -78 247q-57 52 -163 52q-162 0 -213 -163q-18 -57 -19 -138q0 -171 65 -241t160 -70q248 0 248 285v28zM870 1069h279v-919q0 -425 -273 -532q-98 -38 -232 -38q-255 0 -376 87q-112 84 -133 265h291q15 -77 61 -102t139 -26t138 29q82 55 93 192
q5 63 5 131v32q-107 -157 -327 -157q-221 0 -333 145t-112 386t124 390q124 150 332 150q207 0 324 -154v121zM680 1534h248l-160 -317h-303z" />
    <glyph glyph-name="Hcircumflex" unicode="&#x124;" horiz-adv-x="1488" 
d="M150 1462h305v-565h579v565h305v-1462h-305v614h-579v-614h-305v1462zM600 1878h289l248 -297h-246l-148 148l-145 -148h-246z" />
    <glyph glyph-name="hcircumflex" unicode="&#x125;" 
d="M728 1102q192 0 280 -95t88 -300v-707h-287v668q0 114 -43 154q-42 40 -106 40q-107 0 -179 -63q-67 -67 -67 -156v-643h-287v1462h287v-528q123 168 314 168zM391 1878h289l248 -297h-246l-147 148l-146 -148h-246z" />
    <glyph glyph-name="Hbar" unicode="&#x126;" horiz-adv-x="1562" 
d="M1071 866v187h-579v-187h579zM186 1053h-166v231h166v178h306v-178h579v178h307v-178h164v-231h-164v-1053h-307v584h-579v-584h-306v1053z" />
    <glyph glyph-name="hbar" unicode="&#x127;" horiz-adv-x="1220" 
d="M735 1040q192 0 280.5 -96t88.5 -299v-645h-287v606q0 113 -42.5 154t-106.5 41q-106 0 -179 -64q-67 -72 -67 -155v-582h-287v1147h-135v176h135v139h287v-139h323v-176h-323v-277q121 170 313 170z" />
    <glyph glyph-name="Itilde" unicode="&#x128;" horiz-adv-x="604" 
d="M150 1462h305v-1462h-305v1462zM-98 1583q0 155 68 223t186 68q61 0 146 -45l62 -31q30 -14 64 -14t54 16q22 16 22 66h203q0 -154 -68 -222t-184 -67q-69 0 -148 46q-31 17 -59 31t-64 15q-36 0 -58 -17t-22 -69h-202z" />
    <glyph glyph-name="itilde" unicode="&#x129;" horiz-adv-x="544" 
d="M129 1069h287v-1069h-287v1069zM-119 1233q0 155 66 223t178 68q57 0 116 -30q60 -30 90 -46q31 -14 63 -14t54 16t21 66h193q0 -154 -66 -222t-176 -67q-62 0 -146 46l-62 31t-60 15q-79 0 -78 -86h-193z" />
    <glyph glyph-name="Imacron" unicode="&#x12a;" horiz-adv-x="604" 
d="M150 1462h305v-1462h-305v1462zM-12 1845h635v-227h-635v227z" />
    <glyph glyph-name="imacron" unicode="&#x12b;" horiz-adv-x="544" 
d="M129 1069h287v-1069h-287v1069zM-27 1473h598v-220h-598v220z" />
    <glyph glyph-name="Ibreve" unicode="&#x12c;" horiz-adv-x="604" 
d="M150 1462h305v-1462h-305v1462zM184 1898q0 -78 37 -110t84 -31q47 0 83 32t36 109h211q0 -160 -90 -238t-241 -79q-152 0 -240 79t-89 238h209z" />
    <glyph glyph-name="ibreve" unicode="&#x12d;" horiz-adv-x="544" 
d="M129 1069h287v-1069h-287v1069zM156 1528q0 -78 34 -109t81 -31q46 0 81 32q35 30 35 108h205q0 -160 -87 -239t-233 -79t-232 79q-85 79 -85 239h201z" />
    <glyph glyph-name="Iogonek" unicode="&#x12e;" horiz-adv-x="604" 
d="M320 -412q-143 0 -201 50t-58 124q0 75 43 130t123 108h-77v1462h305v-1462q-152 -85 -152 -166q0 -67 74 -67q38 0 72 6v-179q-46 -6 -129 -6z" />
    <glyph glyph-name="iogonek" unicode="&#x12f;" horiz-adv-x="544" 
d="M125 1462h295v-258h-295v258zM288 -399q-138 0 -191.5 49t-53.5 121t40 125t116 104h-70v1069h287v-1069q-144 -83 -144 -160q0 -41 22 -53t50 -12t66 4v-172q-43 -6 -122 -6z" />
    <glyph glyph-name="Idotaccent" unicode="&#x130;" horiz-adv-x="604" 
d="M150 1462h305v-1462h-305v1462zM162 1872h287v-277h-287v277z" />
    <glyph glyph-name="dotlessi" unicode="&#x131;" horiz-adv-x="544" 
d="M129 1069h287v-1069h-287v1069z" />
    <glyph glyph-name="IJ" unicode="&#x132;" horiz-adv-x="1912" 
d="M150 1462h305v-1462h-305v1462zM1475 1462h305v-960q0 -261 -145 -400t-406 -139q-262 0 -404 131q-141 131 -153 410h305q13 -145 68 -211t185 -67t187 76t58 218v942z" />
    <glyph glyph-name="ij" unicode="&#x133;" horiz-adv-x="1089" 
d="M125 1462h295v-258h-295v258zM129 1069h287v-1069h-287v1069zM551 -145q55 -1 89 25t34 110v1079h287v-1073q1 -197 -89 -286t-264 -89q-108 0 -219 35l41 215q66 -16 121 -16zM670 1462h295v-258h-295v258z" />
    <glyph glyph-name="Jcircumflex" unicode="&#x134;" horiz-adv-x="1302" 
d="M864 520v942h305v-960q0 -260 -144 -400q-144 -139 -406 -139t-404 131q-141 131 -154 410h306q13 -145 68 -211t185 -67t187 76t57 218zM872 1878h289l248 -297h-246l-147 148l-146 -148h-245z" />
    <glyph glyph-name="jcircumflex" unicode="&#x135;" horiz-adv-x="544" 
d="M6 -145q55 -1 89 25t34 110v1079h287v-1073q0 -197 -89 -286t-264 -89q-108 0 -219 35l41 215q66 -16 121 -16zM127 1534h289l246 -317h-246l-146 169l-143 -169h-246z" />
    <glyph glyph-name="Kcommaaccent" unicode="&#x136;" horiz-adv-x="1382" 
d="M150 1462h307v-585l538 585h334l-485 -549l538 -913h-340l-411 715l-174 -178v-537h-307v1462zM580 -135h317l-225 -330h-258z" />
    <glyph glyph-name="kcommaaccent" unicode="&#x137;" horiz-adv-x="1181" 
d="M127 1462h281v-766l411 373h332l-389 -369l420 -700h-310l-315 541l-149 -135v-406h-281v1462zM481 -135h303l-215 -318h-247z" />
    <glyph glyph-name="kgreenlandic" unicode="&#x138;" horiz-adv-x="1181" 
d="M127 1069h281v-418l415 418h328l-383 -395l414 -674h-310l-303 508l-161 -156v-352h-281v1069z" />
    <glyph glyph-name="Lacute" unicode="&#x139;" horiz-adv-x="1196" 
d="M150 1462h305v-1200h692l-33 -262h-964v1462zM389 1878h332l-326 -297h-268z" />
    <glyph glyph-name="lacute" unicode="&#x13a;" horiz-adv-x="544" 
d="M129 1462h287v-1462h-287v1462zM362 1878h332l-325 -297h-269z" />
    <glyph glyph-name="Lcommaaccent" unicode="&#x13b;" horiz-adv-x="1196" 
d="M150 1462h305v-1200h692l-33 -262h-964v1462zM496 -135h317l-225 -330h-258z" />
    <glyph glyph-name="lcommaaccent" unicode="&#x13c;" horiz-adv-x="544" 
d="M129 1462h287v-1462h-287v1462zM125 -135h303l-215 -318h-248z" />
    <glyph glyph-name="Lcaron" unicode="&#x13d;" horiz-adv-x="1196" 
d="M150 1462h305v-1200h692l-33 -262h-964v1462zM770 1462h268l-123 -499h-210z" />
    <glyph glyph-name="lcaron" unicode="&#x13e;" horiz-adv-x="880" 
d="M129 1462h287v-1462h-287v1462zM612 1462h269l-123 -499h-211z" />
    <glyph glyph-name="Ldot" unicode="&#x13f;" horiz-adv-x="1196" 
d="M150 1462h305v-1200h692l-33 -262h-964v1462zM731 989h293v-330h-293v330z" />
    <glyph glyph-name="ldot" unicode="&#x140;" horiz-adv-x="892" 
d="M129 1462h287v-1462h-287v1462zM580 928h292v-330h-292v330z" />
    <glyph glyph-name="Lslash" unicode="&#x141;" horiz-adv-x="1232" 
d="M186 1462h306v-538l329 221v-264l-329 -222v-397h692l-33 -262h-965v455l-166 -111v266l166 111v741z" />
    <glyph glyph-name="lslash" unicode="&#x142;" horiz-adv-x="657" 
d="M186 1462h287v-467l184 111v-232l-184 -112v-762h-287v598l-186 -113v234l186 110v633z" />
    <glyph glyph-name="Nacute" unicode="&#x143;" horiz-adv-x="1472" 
d="M150 1462h274l602 -958v958h297v-1462h-272l-605 950v-950h-296v1462zM784 1878h332l-325 -297h-269z" />
    <glyph glyph-name="nacute" unicode="&#x144;" 
d="M737 1102q183 0 271 -95t88 -300v-707h-287v668q0 114 -43 154q-42 40 -106 40q-107 0 -179 -63q-67 -67 -67 -156v-643h-287v1069h279v-147q121 180 331 180zM639 1534h326l-308 -317h-264z" />
    <glyph glyph-name="Ncommaaccent" unicode="&#x145;" horiz-adv-x="1472" 
d="M150 1462h274l602 -958v958h297v-1462h-272l-605 950v-950h-296v1462zM614 -135h318l-225 -330h-258z" />
    <glyph glyph-name="ncommaaccent" unicode="&#x146;" 
d="M737 1102q183 0 271 -95t88 -300v-707h-287v668q0 114 -43 154q-42 40 -106 40q-107 0 -179 -63q-67 -67 -67 -156v-643h-287v1069h279v-147q121 180 331 180zM479 -135h303l-215 -318h-248z" />
    <glyph glyph-name="Ncaron" unicode="&#x147;" horiz-adv-x="1472" 
d="M150 1462h274l602 -958v958h297v-1462h-272l-605 950v-950h-296v1462zM324 1886h245l148 -149l145 149h246l-248 -297h-289z" />
    <glyph glyph-name="ncaron" unicode="&#x148;" 
d="M737 1102q183 0 271 -95t88 -300v-707h-287v668q0 114 -43 154q-42 40 -106 40q-107 0 -179 -63q-67 -67 -67 -156v-643h-287v1069h279v-147q121 180 331 180zM750 1217h-289l-246 317h246l145 -170l144 170h245z" />
    <glyph glyph-name="napostrophe" unicode="&#x149;" horiz-adv-x="1454" 
d="M369 1069h278v-147q121 180 332 180q182 0 270 -95t88 -300v-707h-286v668q0 114 -43 154q-42 40 -106 40q-107 0 -179 -63q-66 -66 -68 -156v-643h-286v1069zM70 1462h278l-127 -520h-219z" />
    <glyph glyph-name="Eng" unicode="&#x14a;" horiz-adv-x="1472" 
d="M776 -158q125 0 180.5 51.5t55.5 167.5l-566 889v-950h-296v1462h274l602 -958v958h297v-1390q0 -492 -510 -492q-162 0 -260 37l61 252q92 -27 162 -27z" />
    <glyph glyph-name="eng" unicode="&#x14b;" 
d="M737 1102q182 0 270.5 -95.5t88.5 -299.5v-719q0 -193 -90.5 -280t-260.5 -87q-102 0 -219 35l41 215q61 -16 118.5 -16t90.5 26.5t33 108.5v678q0 113 -43.5 153.5t-103.5 40.5q-110 0 -179 -63t-69 -156v-643h-287v1069h279v-147q121 180 331 180z" />
    <glyph glyph-name="Omacron" unicode="&#x14c;" horiz-adv-x="1597" 
d="M799 225q379 0 381 506q0 242 -94 374t-288 132q-192 0 -286 -132t-94 -375t94 -374t287 -131zM804 1499q326 0 508 -206q183 -206 183 -562q0 -355 -183 -562q-183 -206 -510 -206q-328 0 -513 206t-186 561t187 562t514 207zM481 1845h635v-227h-635v227z" />
    <glyph glyph-name="omacron" unicode="&#x14d;" horiz-adv-x="1261" 
d="M387 534q-1 -338 243 -337q244 -1 244 337t-244 338t-243 -338zM232 114q-142 148 -142 417t147 420t395 151t395 -151q146 -151 145 -415q-1 -265 -147 -417t-399 -152q-252 -1 -394 147zM332 1473h598v-220h-598v220z" />
    <glyph glyph-name="Obreve" unicode="&#x14e;" horiz-adv-x="1597" 
d="M799 225q379 0 381 506q0 242 -94 374t-288 132q-192 0 -286 -132t-94 -375t94 -374t287 -131zM804 1499q326 0 508 -206q183 -206 183 -562q0 -355 -183 -562q-183 -206 -510 -206q-328 0 -513 206t-186 561t187 562t514 207zM678 1898q0 -78 37 -110t84 -31q47 0 83 32
t36 109h210q0 -160 -90 -238t-240 -79q-150 0 -240 79q-89 79 -89 238h209z" />
    <glyph glyph-name="obreve" unicode="&#x14f;" horiz-adv-x="1261" 
d="M387 534q-1 -338 243 -337q244 -1 244 337t-244 338t-243 -338zM232 114q-142 148 -142 417t147 420t395 151t395 -151q146 -151 145 -415q-1 -265 -147 -417t-399 -152q-252 -1 -394 147zM514 1528q0 -78 35 -109t81 -31t81 32q35 30 34 108h205q0 -160 -87 -239
t-233 -79t-232 79q-85 79 -85 239h201z" />
    <glyph glyph-name="Ohungarumlaut" unicode="&#x150;" horiz-adv-x="1597" 
d="M799 225q379 0 381 506q0 242 -94 374t-288 132q-192 0 -286 -132t-94 -375t94 -374t287 -131zM804 1499q326 0 508 -206q183 -206 183 -562q0 -355 -183 -562q-183 -206 -510 -206q-328 0 -513 206t-186 561t187 562t514 207zM694 1878h316l-320 -297h-252zM1128 1878
h316l-320 -297h-252z" />
    <glyph glyph-name="ohungarumlaut" unicode="&#x151;" horiz-adv-x="1261" 
d="M387 534q-1 -338 243 -337q244 -1 244 337t-244 338t-243 -338zM232 114q-142 148 -142 417t147 420t395 151t395 -151q146 -151 145 -415q-1 -265 -147 -417t-399 -152q-252 -1 -394 147zM899 1534h295l-272 -317h-234zM496 1534h295l-273 -317h-233z" />
    <glyph glyph-name="OE" unicode="&#x152;" horiz-adv-x="2174" 
d="M786 1237q-182 0 -274 -132t-92 -375t92 -374t273 -131t265.5 124t90.5 356v49q-6 229 -89.5 356t-265.5 127zM760 -37q-299 0 -478.5 208.5t-179.5 558.5t181.5 559.5t476.5 209.5q135 0 224 -46t157 -130v139h944v-260h-649v-319h608v-262h-608v-361h692l-31 -260h-956
v135q-135 -172 -381 -172z" />
    <glyph glyph-name="oe" unicode="&#x153;" horiz-adv-x="1966" 
d="M1602 653q0 111 -54.5 172.5t-164.5 61.5t-167 -67.5t-63 -166.5h449zM625 197q233 0 237 335v5q0 335 -237 335q-117 0 -177.5 -86t-60.5 -249q0 -340 238 -340zM1393 190q163 0 194 144h279q-29 -180 -143.5 -273.5t-331.5 -93.5q-143 0 -234.5 52.5t-157.5 152.5
q-68 -100 -154.5 -152.5t-219.5 -52.5q-254 0 -394.5 147.5t-140.5 416.5t145 420t390 151q139 0 228 -52.5t153 -156.5q70 104 160.5 156.5t224.5 52.5q240 0 363.5 -141.5t123.5 -380.5v-115h-729q4 -129 64.5 -202t179.5 -73z" />
    <glyph glyph-name="Racute" unicode="&#x154;" horiz-adv-x="1337" 
d="M930 1014q0 196 -268 196h-211v-407h237q200 0 232 125q10 39 10 86zM150 1462h518q316 0 458 -144q113 -117 113 -298q0 -142 -51 -238t-172 -161l297 -621h-330l-246 549h-286v-549h-301v1462zM676 1878h332l-326 -297h-268z" />
    <glyph glyph-name="racute" unicode="&#x155;" horiz-adv-x="858" 
d="M127 1069h279v-149q53 84 129 126q114 63 274 31l-35 -260q-48 12 -108 12q-182 0 -235 -127q-17 -41 -17 -84v-618h-287v1069zM532 1534h326l-307 -317h-264z" />
    <glyph glyph-name="Rcommaaccent" unicode="&#x156;" horiz-adv-x="1337" 
d="M930 1014q0 196 -268 196h-211v-407h237q200 0 232 125q10 39 10 86zM150 1462h518q316 0 458 -144q113 -117 113 -298q0 -142 -51 -238t-172 -161l297 -621h-330l-246 549h-286v-549h-301v1462zM553 -135h317l-225 -330h-258z" />
    <glyph glyph-name="rcommaaccent" unicode="&#x157;" horiz-adv-x="858" 
d="M127 1069h279v-149q53 84 129 126q114 63 274 31l-35 -260q-48 12 -108 12q-182 0 -235 -127q-17 -41 -17 -84v-618h-287v1069zM133 -135h303l-215 -318h-248z" />
    <glyph glyph-name="Rcaron" unicode="&#x158;" horiz-adv-x="1337" 
d="M930 1014q0 196 -268 196h-211v-407h237q200 0 232 125q10 39 10 86zM150 1462h518q316 0 458 -144q113 -117 113 -298q0 -142 -51 -238t-172 -161l297 -621h-330l-246 549h-286v-549h-301v1462zM231 1886h246l148 -149l145 149h246l-248 -297h-289z" />
    <glyph glyph-name="rcaron" unicode="&#x159;" horiz-adv-x="858" 
d="M127 1069h279v-149q53 84 129 126q114 63 274 31l-35 -260q-48 12 -108 12q-182 0 -235 -127q-17 -41 -17 -84v-618h-287v1069zM592 1217h-289l-246 317h246l146 -170l143 170h246z" />
    <glyph glyph-name="Sacute" unicode="&#x15a;" horiz-adv-x="1320" 
d="M938 412q0 57 -43 107t-158 73l-190 35q-236 42 -349 144q-114 102 -114 304t156 313t429 111q509 0 560 -440l-289 -37q-23 121 -87 174q-65 53 -196 53q-259 0 -264 -157q0 -82 46 -123t157 -64l201 -39q239 -47 349 -152t110 -304t-148 -323q-147 -124 -434 -124
t-446 128t-171 386h310q10 -135 87 -196t226 -62q258 0 258 193zM702 1878h332l-325 -297h-269z" />
    <glyph glyph-name="sacute" unicode="&#x15b;" horiz-adv-x="1099" 
d="M764 745q-34 144 -190 144q-180 0 -208 -66q-10 -18 -10 -52q0 -33 32 -57t124 -40l135 -23q218 -35 300 -114q83 -79 83 -233q0 -155 -115 -246t-354 -91q-336 0 -451 193q-44 72 -51 180h275q14 -94 76 -123t155 -29q94 0 138 26q45 26 45 75t-28 80t-106 43l-147 24
q-195 31 -290 106t-95 226t128 242q128 92 335 92q343 0 435 -197q28 -59 40 -127zM610 1534h326l-307 -317h-264z" />
    <glyph glyph-name="Scircumflex" unicode="&#x15c;" horiz-adv-x="1320" 
d="M938 412q0 57 -43 107t-158 73l-190 35q-236 42 -349 144q-114 102 -114 304t156 313t429 111q509 0 560 -440l-289 -37q-23 121 -87 174q-65 53 -196 53q-259 0 -264 -157q0 -82 46 -123t157 -64l201 -39q239 -47 349 -152t110 -304t-148 -323q-147 -124 -434 -124
t-446 128t-171 386h310q10 -135 87 -196t226 -62q258 0 258 193zM514 1878h289l248 -297h-246l-148 148l-145 -148h-246z" />
    <glyph glyph-name="scircumflex" unicode="&#x15d;" horiz-adv-x="1099" 
d="M764 745q-34 144 -190 144q-180 0 -208 -66q-10 -18 -10 -52q0 -33 32 -57t124 -40l135 -23q218 -35 300 -114q83 -79 83 -233q0 -155 -115 -246t-354 -91q-336 0 -451 193q-44 72 -51 180h275q14 -94 76 -123t155 -29q94 0 138 26q45 26 45 75t-28 80t-106 43l-147 24
q-195 31 -290 106t-95 226t128 242q128 92 335 92q343 0 435 -197q28 -59 40 -127zM406 1534h288l246 -317h-246l-145 169l-143 -169h-246z" />
    <glyph glyph-name="Scedilla" unicode="&#x15e;" horiz-adv-x="1320" 
d="M596 -315q84 0 84 45t-25.5 59t-93.5 14h-76l66 168q-471 53 -494 506h310q10 -135 86.5 -196.5t226.5 -61.5q199 0 228.5 76t29.5 125t-43 99t-158 73l-190 35q-235 42 -349 143t-114 304t155 314t429 111q509 0 561 -440l-289 -37q-23 121 -87.5 174t-195.5 53
q-209 0 -236.5 -63.5t-27.5 -93.5q0 -82 46 -123t157 -64l201 -39q238 -47 348 -152.5t110 -301.5t-141 -320.5t-403 -128.5l-25 -67q197 -20 197 -175q0 -178 -295 -178q-77 0 -154 13v143q78 -14 162 -14z" />
    <glyph glyph-name="scedilla" unicode="&#x15f;" horiz-adv-x="1099" 
d="M574 889q-218 0 -218 -106q0 -46 32 -69.5t124 -39.5l135 -23q216 -34 299.5 -113t83.5 -231q0 -151 -105.5 -240.5t-322.5 -97.5l-22 -65q151 -22 168.5 -83t17.5 -89q0 -176 -283 -176q-76 0 -149 12v141q80 -12 158 -12q79 0 79 57q0 29 -24.5 43.5t-89.5 14.5h-74
l63 161q-362 37 -387 367h275q14 -94 75.5 -123t155.5 -29q183 0 183 101q0 49 -28 79.5t-106 43.5l-147 24q-195 31 -290 105.5t-95 227.5t128.5 243t334.5 90q343 0 403 -128t72 -196l-256 -33q-35 144 -190 144z" />
    <glyph glyph-name="Scaron" unicode="&#x160;" horiz-adv-x="1320" 
d="M938 412q0 57 -43 107t-158 73l-190 35q-236 42 -349 144q-114 102 -114 304t156 313t429 111q509 0 560 -440l-289 -37q-23 121 -87 174q-65 53 -196 53q-259 0 -264 -157q0 -82 46 -123t157 -64l201 -39q239 -47 349 -152t110 -304t-148 -323q-147 -124 -434 -124
t-446 128t-171 386h310q10 -135 87 -196t226 -62q258 0 258 193zM270 1886h246l148 -149l145 149h246l-248 -297h-289z" />
    <glyph glyph-name="scaron" unicode="&#x161;" horiz-adv-x="1099" 
d="M764 745q-34 144 -190 144q-180 0 -208 -66q-10 -18 -10 -52q0 -33 32 -57t124 -40l135 -23q218 -35 300 -114q83 -79 83 -233q0 -155 -115 -246t-354 -91q-336 0 -451 193q-44 72 -51 180h275q14 -94 76 -123t155 -29q94 0 138 26q45 26 45 75t-28 80t-106 43l-147 24
q-195 31 -290 106t-95 226t128 242q128 92 335 92q343 0 435 -197q28 -59 40 -127zM694 1217h-288l-246 317h246l145 -170l143 170h246z" />
    <glyph glyph-name="Tcommaaccent" unicode="&#x162;" horiz-adv-x="1269" 
d="M481 1198h-440v264h1188v-264h-441v-1198h-307v1198zM483 -135h318l-226 -330h-258z" />
    <glyph glyph-name="tcommaaccent" unicode="&#x163;" horiz-adv-x="776" 
d="M193 346v500h-168v223h168v285h286v-285h246v-223h-246v-494q0 -84 35 -114q34 -30 96 -29q62 0 111 14l41 -211q-105 -32 -223 -32q-176 0 -261 84t-85 282zM338 -135h303l-215 -318h-248z" />
    <glyph glyph-name="Tcaron" unicode="&#x164;" horiz-adv-x="1269" 
d="M481 1198h-440v264h1188v-264h-441v-1198h-307v1198zM242 1886h245l148 -149l145 149h246l-248 -297h-289z" />
    <glyph glyph-name="tcaron" unicode="&#x165;" horiz-adv-x="776" 
d="M193 346v500h-168v223h168v285h286v-285h246v-223h-246v-494q0 -84 35 -114q34 -30 96 -29q62 0 111 14l41 -211q-105 -32 -223 -32q-176 0 -261 84t-85 282zM631 1536h241l-110 -348h-189z" />
    <glyph glyph-name="Tbar" unicode="&#x166;" horiz-adv-x="1269" 
d="M481 567h-278v252h278v379h-440v264h1188v-264h-441v-379h279v-252h-279v-567h-307v567z" />
    <glyph glyph-name="tbar" unicode="&#x167;" horiz-adv-x="776" 
d="M193 346v96h-168v224h168v180h-168v223h168v285h286v-285h246v-223h-246v-180h246v-224h-246v-90q0 -84 35 -113.5t96 -29.5t111 14l41 -211q-105 -32 -223 -32q-176 0 -261 83.5t-85 282.5z" />
    <glyph glyph-name="Utilde" unicode="&#x168;" horiz-adv-x="1419" 
d="M709 -37q-588 0 -588 635v864h305v-870q0 -186 66 -276t220 -91q154 0 218 90t63 277v870h305v-870q0 -481 -343 -593q-110 -36 -246 -36zM305 1583q0 155 69 223t185 68q62 0 147 -45q32 -17 62 -31t62 -14q34 0 56 16t21 66h203q0 -154 -68 -222t-184 -67
q-70 0 -147 46q-31 17 -60 31t-63 15q-34 0 -58 -17q-23 -17 -22 -69h-203z" />
    <glyph glyph-name="utilde" unicode="&#x169;" horiz-adv-x="1202" 
d="M117 362v707h286v-668q0 -115 41 -155q40 -40 104 -39q64 0 100 16t69 46q71 65 71 157v643h287v-1069h-278v147q-126 -180 -317 -180t-277 95t-86 300zM209 1233q-1 155 65 223t179 68q54 0 115 -30q60 -30 90 -46q30 -14 63 -14t55 16t21 66h192q1 -154 -65 -222
t-176 -67q-62 0 -146 46l-62 31t-61 15q-78 0 -78 -86h-192z" />
    <glyph glyph-name="Umacron" unicode="&#x16a;" horiz-adv-x="1419" 
d="M709 -37q-588 0 -588 635v864h305v-870q0 -186 66 -276t220 -91q154 0 218 90t63 277v870h305v-870q0 -481 -343 -593q-110 -36 -246 -36zM391 1845h635v-227h-635v227z" />
    <glyph glyph-name="umacron" unicode="&#x16b;" horiz-adv-x="1202" 
d="M117 362v707h286v-668q0 -115 41 -155q40 -40 104 -39q64 0 100 16t69 46q71 65 71 157v643h287v-1069h-278v147q-126 -180 -317 -180t-277 95t-86 300zM301 1473h598v-220h-598v220z" />
    <glyph glyph-name="Ubreve" unicode="&#x16c;" horiz-adv-x="1419" 
d="M709 -37q-588 0 -588 635v864h305v-870q0 -186 66 -276t220 -91q154 0 218 90t63 277v870h305v-870q0 -481 -343 -593q-110 -36 -246 -36zM588 1898q0 -78 37 -110t84 -31q47 0 83 32t35 109h211q0 -160 -90 -238t-240 -79q-150 0 -240 79q-89 79 -89 238h209z" />
    <glyph glyph-name="ubreve" unicode="&#x16d;" horiz-adv-x="1202" 
d="M117 362v707h286v-668q0 -115 41 -155q40 -40 104 -39q64 0 100 16t69 46q71 65 71 157v643h287v-1069h-278v147q-126 -180 -317 -180t-277 95t-86 300zM483 1528q0 -78 35 -109t81 -31t81 32q35 30 35 108h205q0 -160 -87 -239t-233 -79t-232 79q-85 79 -85 239h200z
" />
    <glyph glyph-name="Uring" unicode="&#x16e;" horiz-adv-x="1419" 
d="M709 -37q-588 0 -588 635v864h305v-870q0 -186 66 -276t220 -91q154 0 218 90t63 277v870h305v-870q0 -481 -343 -593q-110 -36 -246 -36zM614 1755q0 -98 94 -98t93 99q0 99 -94 97q-93 0 -93 -98zM461 1753q0 123 70 182q70 60 175 61t176 -62q72 -63 72 -180t-69 -178
t-178 -63q-167 0 -227 134q-19 45 -19 106z" />
    <glyph glyph-name="uring" unicode="&#x16f;" horiz-adv-x="1202" 
d="M117 362v707h286v-668q0 -115 41 -155q40 -40 104 -39q64 0 100 16t69 46q71 65 71 157v643h287v-1069h-278v147q-126 -180 -317 -180t-277 95t-86 300zM510 1436q0 -47 24 -71t64 -24q41 0 66 24q24 24 24 72q-1 93 -89 93q-89 0 -89 -94zM362 1435q0 111 67 171
q67 61 169 61t169 -59t68 -173q1 -113 -67 -170t-170 -59q-47 0 -90 15q-88 29 -126 113q-20 43 -20 101z" />
    <glyph glyph-name="Uhungarumlaut" unicode="&#x170;" horiz-adv-x="1419" 
d="M709 -37q-588 0 -588 635v864h305v-870q0 -186 66 -276t220 -91q154 0 218 90t63 277v870h305v-870q0 -481 -343 -593q-110 -36 -246 -36zM565 1878h316l-320 -297h-252zM999 1878h316l-320 -297h-252z" />
    <glyph glyph-name="uhungarumlaut" unicode="&#x171;" horiz-adv-x="1202" 
d="M117 362v707h286v-668q0 -115 41 -155q40 -40 104 -39q64 0 100 16t69 46q71 65 71 157v643h287v-1069h-278v147q-126 -180 -317 -180t-277 95t-86 300zM862 1534h295l-272 -317h-234zM459 1534h295l-273 -317h-233z" />
    <glyph glyph-name="Uogonek" unicode="&#x172;" horiz-adv-x="1419" 
d="M121 598v864h305v-870q0 -186 65.5 -276.5t219 -90.5t218 90.5t64.5 276.5v870h305v-870q0 -477 -340 -592q-151 -85 -151 -159t74 -74q38 0 71 6v-179q-46 -6 -129 -6q-142 0 -200 50t-58 142q0 93 115 183q-268 8 -413.5 158.5t-145.5 476.5z" />
    <glyph glyph-name="uogonek" unicode="&#x173;" horiz-adv-x="1202" 
d="M117 362v707h286v-668q0 -115 40.5 -154.5t104.5 -39.5t100 16.5t69 46.5q71 63 71 156v643h287v-1069q-143 -82 -143 -154q0 -71 69 -71q32 0 68 4v-172q-44 -6 -122 -6q-138 0 -191.5 49t-53.5 121t40 125t116 104h-61v147q-126 -180 -317 -180t-277 95.5t-86 299.5z
" />
    <glyph glyph-name="Wcircumflex" unicode="&#x174;" horiz-adv-x="1982" 
d="M20 1462h345l235 -1016l240 1008h323l250 -1008l221 1016h328l-397 -1462h-297l-273 1081l-264 -1081h-289zM846 1878h289l247 -297h-245l-148 148l-145 -148h-246z" />
    <glyph glyph-name="wcircumflex" unicode="&#x175;" horiz-adv-x="1583" 
d="M12 1069h312l149 -709l205 701h250l194 -701l150 709h299l-311 -1069h-279l-190 705l-193 -705h-274zM645 1534h289l246 -317h-246l-146 169l-143 -169h-246z" />
    <glyph glyph-name="Ycircumflex" unicode="&#x176;" horiz-adv-x="1345" 
d="M831 0h-305v596l-506 866h340l316 -592l325 592h324l-494 -866v-596zM526 1878h289l248 -297h-246l-147 148l-146 -148h-245z" />
    <glyph glyph-name="ycircumflex" unicode="&#x177;" horiz-adv-x="1161" 
d="M274 -168q59 0 95 28q35 28 59 97l33 90l-445 1022h332l250 -702l233 702h314l-432 -1100q-37 -93 -70 -161t-75 -114q-85 -93 -244 -91q-114 0 -215 32l47 213q59 -16 118 -16zM436 1534h289l246 -317h-246l-145 169l-144 -169h-246z" />
    <glyph glyph-name="Ydieresis" unicode="&#x178;" horiz-adv-x="1345" 
d="M831 0h-305v596l-506 866h340l316 -592l325 592h324l-494 -866v-596zM748 1866h274v-264h-274v264zM322 1866h274v-264h-274v264z" />
    <glyph glyph-name="Zacute" unicode="&#x179;" horiz-adv-x="1202" 
d="M61 1200v262h1082v-225l-729 -975h762l-31 -262h-1098v223l731 977h-717zM627 1878h331l-325 -297h-268z" />
    <glyph glyph-name="zacute" unicode="&#x17a;" horiz-adv-x="1024" 
d="M86 846v223h875v-195l-519 -651h543l-27 -223h-882v195l520 651h-510zM598 1534h326l-308 -317h-264z" />
    <glyph glyph-name="Zdotaccent" unicode="&#x17b;" horiz-adv-x="1202" 
d="M61 1200v262h1082v-225l-729 -975h762l-31 -262h-1098v223l731 977h-717zM457 1872h286v-277h-286v277z" />
    <glyph glyph-name="zdotaccent" unicode="&#x17c;" horiz-adv-x="1024" 
d="M86 846v223h875v-195l-519 -651h543l-27 -223h-882v195l520 651h-510zM401 1503h271v-260h-271v260z" />
    <glyph glyph-name="Zcaron" unicode="&#x17d;" horiz-adv-x="1202" 
d="M61 1200v262h1082v-225l-729 -975h762l-31 -262h-1098v223l731 977h-717zM197 1886h245l148 -149l145 149h246l-248 -297h-289z" />
    <glyph glyph-name="zcaron" unicode="&#x17e;" horiz-adv-x="1024" 
d="M86 846v223h875v-195l-519 -651h543l-27 -223h-882v195l520 651h-510zM680 1217h-289l-246 317h246l146 -170l143 170h246z" />
    <glyph glyph-name="longs" unicode="&#x17f;" horiz-adv-x="559" 
d="M129 1104q0 191 103 283t270 92q121 0 223 -31l-39 -209q-62 16 -122 16t-104 -31.5t-44 -113.5v-1110h-287v1104z" />
    <glyph glyph-name="florin" unicode="&#x192;" 
d="M126 -125q68 0 103 33t52 108l153 785h-162l33 233h172l19 86q35 162 133 247t282 85q123 0 236 -47l-76 -213q-72 29 -139 29q-66 0 -106 -32t-56 -110l-10 -45h248l-33 -233h-260l-162 -828q-33 -162 -126 -246.5t-250 -84.5t-253 43l74 217q60 -27 128 -27z" />
    <glyph glyph-name="Scommaaccent" unicode="&#x218;" horiz-adv-x="1320" 
d="M938 412q0 57 -43 107t-158 73l-190 35q-236 42 -349 144q-114 102 -114 304t156 313t429 111q509 0 560 -440l-289 -37q-23 121 -87 174q-65 53 -196 53q-259 0 -264 -157q0 -82 46 -123t157 -64l201 -39q239 -47 349 -152t110 -304t-148 -323q-147 -124 -434 -124
t-446 128t-171 386h310q10 -135 87 -196t226 -62q258 0 258 193zM528 -135h318l-225 -330h-259z" />
    <glyph glyph-name="scommaaccent" unicode="&#x219;" horiz-adv-x="1099" 
d="M764 745q-34 144 -190 144q-180 0 -208 -66q-10 -18 -10 -52q0 -33 32 -57t124 -40l135 -23q218 -35 300 -114q83 -79 83 -233q0 -155 -115 -246t-354 -91q-336 0 -451 193q-44 72 -51 180h275q14 -94 76 -123t155 -29q94 0 138 26q45 26 45 75t-28 80t-106 43l-147 24
q-195 31 -290 106t-95 226t128 242q128 92 335 92q343 0 435 -197q28 -59 40 -127zM424 -135h303l-215 -318h-248z" />
    <glyph glyph-name="uni021A" unicode="&#x21a;" horiz-adv-x="1269" 
d="M481 1198h-440v264h1188v-264h-441v-1198h-307v1198zM483 -135h318l-226 -330h-258z" />
    <glyph glyph-name="uni021B" unicode="&#x21b;" horiz-adv-x="776" 
d="M193 346v500h-168v223h168v285h286v-285h246v-223h-246v-494q0 -84 35 -114q34 -30 96 -29q62 0 111 14l41 -211q-105 -32 -223 -32q-176 0 -261 84t-85 282zM336 -135h303l-215 -318h-248z" />
    <glyph glyph-name="dotlessj" unicode="&#x237;" horiz-adv-x="544" 
d="M6 -145q55 0 89 25.5t34 109.5v1079h287v-1073q0 -197 -89 -286t-264 -89q-102 0 -219 35l41 215q66 -16 121 -16z" />
    <glyph glyph-name="apostrophe" unicode="&#x2bc;" horiz-adv-x="847" 
d="M129 1462h279l-127 -520h-220z" />
    <glyph glyph-name="circumflex" unicode="&#x2c6;" horiz-adv-x="847" 
d="M279 1534h288l246 -317h-246l-145 169l-143 -169h-246z" />
    <glyph glyph-name="caron" unicode="&#x2c7;" horiz-adv-x="847" 
d="M567 1217h-288l-246 317h246l145 -170l143 170h246z" />
    <glyph glyph-name="uni02C9" unicode="&#x2c9;" horiz-adv-x="847" 
d="M125 1473h598v-220h-598v220z" />
    <glyph glyph-name="breve" unicode="&#x2d8;" horiz-adv-x="847" 
d="M307 1528q0 -78 35 -108.5t81 -30.5t81 30.5t35 108.5h204q0 -160 -87 -239t-233 -79t-231.5 79t-85.5 239h201z" />
    <glyph glyph-name="dotaccent" unicode="&#x2d9;" horiz-adv-x="847" 
d="M289 1503h270v-260h-270v260z" />
    <glyph glyph-name="ring" unicode="&#x2da;" horiz-adv-x="847" 
d="M512 1436q0 94 -89 94t-89 -94q0 -47 23.5 -71t64.5 -24t65.5 24t24.5 71zM186 1435q0 58 19.5 102t51.5 72.5t75 43t116 14.5t142 -59.5t69 -171.5q0 -166 -95 -198t-142 -32t-90 14.5t-75 42t-51.5 71t-19.5 101.5z" />
    <glyph glyph-name="ogonek" unicode="&#x2db;" horiz-adv-x="847" 
d="M473 -399q-235 0 -235 176q0 66 39.5 119t115.5 104h217q-143 -82 -143 -160q0 -41 22.5 -53t50.5 -12t64 4v-172q-43 -6 -131 -6z" />
    <glyph glyph-name="tilde" unicode="&#x2dc;" horiz-adv-x="847" 
d="M33 1233q0 154 65.5 222.5t177.5 68.5q57 0 117 -31t89.5 -45t62.5 -14t54.5 16t21.5 66h192q0 -154 -65.5 -221.5t-176.5 -67.5q-59 0 -118.5 31.5t-88 46t-61.5 14.5q-78 0 -78 -86h-192z" />
    <glyph glyph-name="hungarumlaut" unicode="&#x2dd;" horiz-adv-x="847" 
d="M584 1534h295l-273 -317h-233zM180 1534h295l-272 -317h-234z" />
    <glyph glyph-name="uni0394" unicode="&#x394;" horiz-adv-x="1298" 
d="M944 264l-301 879l-301 -879h602zM1257 0h-1216v203l459 1259h297l460 -1259v-203z" />
    <glyph glyph-name="Omega" unicode="&#x3a9;" horiz-adv-x="1488" 
d="M1081 795q0 462 -331 460q-180 0 -263 -118q-81 -119 -81 -321t46 -346q46 -146 166 -239v-231h-567v246h250q-96 112 -147 240q-52 128 -52 304q-1 341 178 525q178 184 471 184t464 -179q172 -179 174 -519q0 -251 -118 -439q-38 -59 -87 -116h254v-246h-568v231
q211 149 211 564z" />
    <glyph glyph-name="uni03BC" unicode="&#x3bc;" horiz-adv-x="1202" 
d="M403 -397h-286v1466h286v-668q0 -115 41 -155q40 -40 104 -39q64 0 100 16t69 46q71 65 71 157v643h287v-1069h-278v147q-99 -172 -256 -172q-92 0 -138 52v-424z" />
    <glyph glyph-name="pi" unicode="&#x3c0;" 
d="M197 807h-148v262h1116v-262h-147v-807h-287v807h-248v-807h-286v807z" />
    <glyph glyph-name="Wgrave" unicode="&#x1e80;" horiz-adv-x="1982" 
d="M20 1462h345l235 -1016l240 1008h323l250 -1008l221 1016h328l-397 -1462h-297l-273 1081l-264 -1081h-289zM942 1878l262 -297h-268l-326 297h332z" />
    <glyph glyph-name="wgrave" unicode="&#x1e81;" horiz-adv-x="1583" 
d="M12 1069h312l149 -709l205 701h250l194 -701l150 709h299l-311 -1069h-279l-190 705l-193 -705h-274zM399 1534h326l246 -317h-264z" />
    <glyph glyph-name="Wacute" unicode="&#x1e82;" horiz-adv-x="1982" 
d="M20 1462h345l235 -1016l240 1008h323l250 -1008l221 1016h328l-397 -1462h-297l-273 1081l-264 -1081h-289zM1059 1878h332l-326 -297h-268z" />
    <glyph glyph-name="wacute" unicode="&#x1e83;" horiz-adv-x="1583" 
d="M12 1069h312l149 -709l205 701h250l194 -701l150 709h299l-311 -1069h-279l-190 705l-193 -705h-274zM879 1534h325l-307 -317h-264z" />
    <glyph glyph-name="Wdieresis" unicode="&#x1e84;" horiz-adv-x="1982" 
d="M20 1462h345l235 -1016l240 1008h323l250 -1008l221 1016h328l-397 -1462h-297l-273 1081l-264 -1081h-289zM1067 1866h274v-264h-274v264zM641 1866h274v-264h-274v264z" />
    <glyph glyph-name="wdieresis" unicode="&#x1e85;" horiz-adv-x="1583" 
d="M12 1069h312l149 -709l205 701h250l194 -701l150 709h299l-311 -1069h-279l-190 705l-193 -705h-274zM864 1501h266v-256h-266v256zM451 1501h266v-256h-266v256z" />
    <glyph glyph-name="Ygrave" unicode="&#x1ef2;" horiz-adv-x="1345" 
d="M831 0h-305v596l-506 866h340l316 -592l325 592h324l-494 -866v-596zM586 1878l262 -297h-268l-326 297h332z" />
    <glyph glyph-name="ygrave" unicode="&#x1ef3;" horiz-adv-x="1161" 
d="M274 -168q59 0 95 28q35 28 59 97l33 90l-445 1022h332l250 -702l233 702h314l-432 -1100q-37 -93 -70 -161t-75 -114q-85 -93 -244 -91q-114 0 -215 32l47 213q59 -16 118 -16zM188 1534h326l246 -317h-264z" />
    <glyph glyph-name="endash" unicode="&#x2013;" horiz-adv-x="1024" 
d="M0 748h1024v-271h-1024v271z" />
    <glyph glyph-name="emdash" unicode="&#x2014;" horiz-adv-x="2048" 
d="M0 748h2048v-271h-2048v271z" />
    <glyph glyph-name="emdash" unicode="&#x2015;" horiz-adv-x="2048" 
d="M0 748h2048v-271h-2048v271z" />
    <glyph glyph-name="quoteleft" unicode="&#x2018;" horiz-adv-x="493" 
d="M213 1462h219l-65 -520h-281z" />
    <glyph glyph-name="quoteright" unicode="&#x2019;" horiz-adv-x="493" 
d="M129 1462h279l-127 -520h-220z" />
    <glyph glyph-name="quotesinglbase" unicode="&#x201a;" horiz-adv-x="493" 
d="M139 330h279l-127 -523h-219z" />
    <glyph glyph-name="quotedblleft" unicode="&#x201c;" horiz-adv-x="856" 
d="M592 1462h203l-66 -520h-264zM213 1462h203l-66 -520h-264z" />
    <glyph glyph-name="quotedblright" unicode="&#x201d;" horiz-adv-x="856" 
d="M129 1462h262l-127 -520h-203zM506 1462h264l-127 -520h-203z" />
    <glyph glyph-name="quotedblbase" unicode="&#x201e;" horiz-adv-x="856" 
d="M139 328h262l-127 -523h-202zM516 328h264l-127 -523h-202z" />
    <glyph glyph-name="dagger" unicode="&#x2020;" horiz-adv-x="980" 
d="M348 834h-317v253h317v375h285v-375h317v-253h-317v-1012h-285v1012z" />
    <glyph glyph-name="daggerdbl" unicode="&#x2021;" horiz-adv-x="980" 
d="M348 203h-317v254h317v397h-317v254h317v354h285v-354h317v-254h-317v-397h317v-254h-317v-381h-285v381z" />
    <glyph glyph-name="bullet" unicode="&#x2022;" horiz-adv-x="819" 
d="M189.5 965q87.5 86 220.5 86q134 0 220.5 -84.5t86.5 -221.5t-86 -223t-221 -86t-221.5 88t-86.5 221q0 134 87.5 220z" />
    <glyph glyph-name="ellipsis" unicode="&#x2026;" horiz-adv-x="1996" 
d="M852 330h293v-330h-293v330zM106 330h293v-330h-293v330zM1599 330h293v-330h-293v330z" />
    <glyph glyph-name="perthousand" unicode="&#x2030;" horiz-adv-x="2834" 
d="M584 999q0 139 -38 193t-105 55q-67 0 -105 -54q-38 -53 -37 -193q-1 -140 37 -192t105 -52t105 52t38 191zM441 555q-169 0 -275 109t-105 333q0 225 106 339t273 114q266 0 351 -249q29 -85 29 -202t-28 -201q-80 -243 -351 -243zM774 0h-276l712 1415h277zM1405 412
q-1 -140 37 -192t105 -52t105 52t38 192t-38 193q-38 54 -105 54t-105 -54t-37 -193zM1547 -33q-170 0 -275 109t-105 333q0 223 107 339t272 114q269 0 350 -249q29 -85 29 -201t-28 -202q-80 -243 -350 -243zM2253 412q-1 -140 37 -192t105 -52t105 52t38 192t-38 193
q-38 54 -105 54t-105 -54t-37 -193zM2395 -33q-81 0 -151 26t-120 79q-109 113 -109 337q0 223 107 339t272 114q266 0 350 -249q29 -85 29 -201t-28 -202q-28 -85 -79 -138q-50 -53 -120 -79t-151 -26z" />
    <glyph glyph-name="guilsinglleft" unicode="&#x2039;" horiz-adv-x="669" 
d="M72 528l262 459h295l-238 -457l238 -469h-299z" />
    <glyph glyph-name="guilsinglright" unicode="&#x203a;" horiz-adv-x="669" 
d="M279 520l-238 467h301l256 -465l-260 -461h-297z" />
    <glyph glyph-name="fraction" unicode="&#x2044;" horiz-adv-x="231" 
d="M-102 0h-277l713 1415h276z" />
    <glyph glyph-name="zerosuperior" unicode="&#x2070;" horiz-adv-x="843" 
d="M423 756q67 0 104.5 52t37.5 191.5t-38.5 193.5t-104.5 54t-103.5 -54t-37.5 -193.5t37.5 -191.5t104.5 -52zM423 555q-81 0 -150.5 25.5t-121 79t-80 138.5t-28.5 254.5t105.5 283.5t273.5 114q265 0 322 -167t57 -283.5t-28 -201.5t-79 -138.5t-120.5 -79t-150.5 -25.5
z" />
    <glyph glyph-name="foursuperior" unicode="&#x2074;" horiz-adv-x="843" 
d="M465 920v254l-189 -254h189zM659 1415v-495h107l-21 -164h-86v-166h-194v166h-393v129l399 530h188z" />
    <glyph glyph-name="fivesuperior" unicode="&#x2075;" horiz-adv-x="843" 
d="M474 1122q269 0 269 -280q0 -136 -81.5 -211.5t-229.5 -75.5q-297 0 -315 276h190q8 -47 34 -74.5t85 -27.5q117 0 117 124t-121 124q-69 0 -121 -47h-164l45 485h500v-172h-328q-4 -35 -6 -69.5t-6 -73.5q63 22 132 22z" />
    <glyph glyph-name="sixsuperior" unicode="&#x2076;" horiz-adv-x="843" 
d="M416 715q142 0 143 127q0 59 -31.5 95t-89.5 36q-142 0 -141 -117q0 -53 29.5 -97t89.5 -44zM451 1282q-145 0 -160 -221q81 53 203 53t191 -71.5t69 -195.5t-90.5 -208t-241.5 -84q-187 0 -261.5 116.5t-74.5 266.5q0 272 100 392t257 120q156 0 224 -66.5t87 -183.5
l-197 -20q-8 102 -106 102z" />
    <glyph glyph-name="sevensuperior" unicode="&#x2077;" horiz-adv-x="843" 
d="M96 1231v184h633v-158q-176 -324 -270 -667h-232q113 361 252 641h-383z" />
    <glyph glyph-name="eightsuperior" unicode="&#x2078;" horiz-adv-x="843" 
d="M559 821q0 103 -136 103q-71 0 -104.5 -30t-33.5 -76t35.5 -74.5t102.5 -28.5t101.5 29.5t34.5 76.5zM301 1192q0 -100 117 -100t117 102q0 41 -27 68.5t-87 27.5t-90 -28.5t-30 -69.5zM115 1194q0 112 74.5 183t235.5 71t233.5 -68.5t72.5 -181.5t-104 -180
q131 -69 131 -195q0 -127 -84 -196.5t-255 -69.5t-252 70.5t-81 190.5t129 198q-100 66 -100 178z" />
    <glyph glyph-name="ninesuperior" unicode="&#x2079;" horiz-adv-x="843" 
d="M412 1288q-136 0 -136 -121q0 -59 32 -97t89 -38q142 0 142 117q0 53 -30 96t-97 43zM343 889q-124 0 -192.5 74.5t-68.5 198.5t90.5 206t241.5 82q184 0 260 -126.5t76 -278.5q0 -272 -92 -381t-251 -109q-160 0 -235.5 65.5t-85.5 190.5h197q8 -53 39.5 -71.5
t89.5 -18.5t97.5 56.5t35.5 166.5q-78 -55 -202 -55z" />
    <glyph glyph-name="zeroinferior" unicode="&#x2080;" horiz-adv-x="843" 
d="M423 168q67 0 105 52t37 192q0 140 -38 193q-39 54 -105 54t-104 -54t-38 -193t38 -192q38 -52 105 -52zM423 -33q-268 0 -351 243q-29 85 -29 202q0 220 107 336t272 114q266 0 350 -249q29 -85 29 -201t-28 -202q-28 -85 -79 -138q-101 -105 -271 -105z" />
    <glyph glyph-name="oneinferior" unicode="&#x2081;" horiz-adv-x="843" 
d="M575 827v-825h-217v616l-190 -102l-82 150l289 161h200z" />
    <glyph glyph-name="twoinferior" unicode="&#x2082;" horiz-adv-x="843" 
d="M735 598q0 -85 -37 -146t-93 -117q-56 -57 -95 -87t-80 -64h315l-22 -182h-610v152q27 24 73 60q60 46 223 188q72 63 89 107q16 44 16 83q0 38 -24 64t-74 26t-81 -28q-32 -28 -46 -107l-209 26q62 292 352 289q147 0 225 -70t78 -194z" />
    <glyph glyph-name="threeinferior" unicode="&#x2083;" horiz-adv-x="843" 
d="M438 131q131 -1 131 105t-129 106h-86v164h88q55 0 84 28t29 70q0 96 -117 94q-53 0 -88 -26t-47 -97l-192 27q23 115 99 188q78 72 236 72t232 -68t74 -176q0 -107 -113 -182q67 -27 99 -80t32 -110q0 -125 -76 -202t-248 -77t-264 99q-69 76 -76 208h193
q15 -143 139 -143z" />
    <glyph glyph-name="fourinferior" unicode="&#x2084;" horiz-adv-x="843" 
d="M465 332v254l-189 -254h189zM659 827v-495h107l-21 -164h-86v-166h-194v166h-393v129l399 530h188z" />
    <glyph glyph-name="fiveinferior" unicode="&#x2085;" horiz-adv-x="843" 
d="M743 254q1 -136 -81 -212t-230 -75q-297 0 -315 277h190q8 -47 34 -75t85 -28q117 0 117 124t-121 124q-72 0 -121 -47h-164l45 485h500v-172h-328q-4 -35 -6 -69t-6 -74q57 20 129 21q137 3 205 -70q67 -73 67 -209z" />
    <glyph glyph-name="sixinferior" unicode="&#x2086;" horiz-adv-x="843" 
d="M297 274q-1 -59 29 -103t90 -44q142 0 143 127q0 59 -32 95t-89 36t-99 -26t-42 -85zM494 526q122 0 191 -72t69 -194q0 -123 -90 -208q-91 -85 -242 -85q-187 0 -270 131q-66 102 -66 251q0 395 221 487q66 27 142 26q151 0 219 -66t86 -184l-197 -20q-4 51 -33 77
t-73 25q-145 0 -160 -221q81 53 203 53z" />
    <glyph glyph-name="seveninferior" unicode="&#x2087;" horiz-adv-x="843" 
d="M96 643v184h633v-157q-176 -323 -270 -668h-232q117 372 252 641h-383z" />
    <glyph glyph-name="eightinferior" unicode="&#x2088;" horiz-adv-x="843" 
d="M559 234q-1 102 -137 102q-70 0 -104 -30t-33 -76q0 -46 36 -74q37 -28 103 -29q66 0 100 30t35 77zM301 604q0 -100 117 -100t117 102q0 41 -27 69q-27 27 -87 27t-90 -28t-30 -70zM731 610q0 -113 -104 -180q131 -69 131 -195q0 -127 -84 -197t-255 -69q-171 0 -252 71
t-81 191t129 197q-102 68 -101 179t75 183q75 70 236 70t233 -68t73 -182z" />
    <glyph glyph-name="nineinferior" unicode="&#x2089;" horiz-adv-x="843" 
d="M412 700q-136 0 -136 -120q0 -60 32 -98t89 -38t100 26q42 26 42 85t-30 102t-97 43zM150 376q-68 75 -68 199t91 206q91 83 241 81q186 0 270 -143q63 -105 65 -259q2 -274 -91 -384q-93 -109 -252 -109q-158 0 -234 66t-86 190h197q8 -53 40 -71t90 -18t97 55
q39 56 35 167q-78 -55 -202 -55q-125 0 -193 75z" />
    <glyph glyph-name="Euro" unicode="&#x20ac;" 
d="M162 639v125h-133l28 186h125q61 350 235.5 427t295.5 77q221 0 328.5 -103.5t134.5 -308.5l-256 -41q-23 111 -69.5 157t-146.5 46q-183 0 -235 -254h328l-29 -186h-322v-125h308l-31 -186h-254q51 -242 229 -242q111 0 163 53t65 164h268q-32 -465 -502 -465
q-432 0 -514 490h-149l28 186h105z" />
    <glyph glyph-name="afii61289" unicode="&#x2113;" horiz-adv-x="1075" 
d="M750 1130q0 83 -22.5 122.5t-82.5 39.5q-77 0 -98 -103.5t-21 -189.5v-294q98 111 161 226.5t63 198.5zM238 969q0 262 107.5 393t273.5 131q165 0 246 -102.5t81 -268.5q0 -165 -111.5 -331t-308.5 -340v-72q0 -86 44 -134t114 -48q107 0 201 94l121 -144
q-152 -184 -396 -184q-245 0 -306.5 136.5t-61.5 187.5l-101 -72l-75 147l172 134v473z" />
    <glyph glyph-name="trademark" unicode="&#x2122;" horiz-adv-x="1886" 
d="M840 1462h239l219 -594l222 594h235v-819h-182v516l-193 -516h-168l-192 514v-514h-180v819zM291 1286h-250v176h702v-176h-254v-643h-198v643z" />
    <glyph glyph-name="uni2126" unicode="&#x2126;" horiz-adv-x="1488" 
d="M1081 795q0 460 -331 460q-180 0 -262 -118.5t-82 -320.5t46 -347t166 -238v-231h-567v246h250q-96 113 -147.5 240.5t-51.5 303.5t47.5 307.5t133.5 220.5t204.5 135t336 46t391.5 -180t174 -518q0 -254 -78 -376t-127 -179h254v-246h-568v231q211 149 211 564z" />
    <glyph glyph-name="estimated" unicode="&#x212e;" horiz-adv-x="1865" 
d="M1448 741q8 0 8 15v407q0 27 -18 49q-98 98 -227.5 154.5t-277 56.5t-277.5 -60t-228 -159q-20 -16 -20 -49v-399q0 -14 10 -15h1030zM408 285q0 -27 18 -45q209 -222 508 -222q164 0 299 68t235 178h119q-109 -133 -283 -210t-360 -77t-336.5 58.5t-263.5 159
t-177.5 236.5t-64.5 289.5t64.5 290t177.5 238t263.5 160.5t322.5 59t324.5 -59t265 -160.5t178 -238t65.5 -289.5v-21h-1345q-10 0 -10 -8v-407z" />
    <glyph glyph-name="onethird" unicode="&#x2153;" horiz-adv-x="1918" 
d="M516 1415v-825h-217v616l-190 -102l-82 149l288 162h201zM670 0h-277l713 1415h276zM1513 131q132 -1 132 105t-129 106h-86v164h88q55 0 84 28t28 70q0 96 -117 94q-53 0 -88 -26t-47 -97l-192 27q23 115 99 188q77 72 236 72t233 -68t73 -176q0 -107 -113 -182
q66 -27 98 -80t33 -110q0 -125 -76 -202t-248 -77t-264 99q-70 77 -75 208h192q15 -143 139 -143z" />
    <glyph glyph-name="twothirds" unicode="&#x2154;" horiz-adv-x="1918" 
d="M80 1161q61 289 345 289q154 0 232 -71t78 -193q0 -84 -37 -145t-93 -118t-95 -87t-80 -64h315l-22 -182h-610v151q27 25 93 76t203 173q105 93 105 190q0 38 -24 64t-74 26t-81 -28q-32 -28 -46 -107zM774 0h-276l712 1415h277zM1513 131q132 -1 132 105t-129 106h-86
v164h88q55 0 84 28t28 70q0 96 -117 94q-53 0 -88 -26t-47 -97l-192 27q23 115 99 188q77 72 236 72t233 -68t73 -176q0 -107 -113 -182q66 -27 98 -80t33 -110q0 -125 -76 -202t-248 -77t-264 99q-70 77 -75 208h192q15 -143 139 -143z" />
    <glyph glyph-name="onefifth" unicode="&#x2155;" horiz-adv-x="1918" 
d="M516 1415v-825h-217v616l-190 -102l-82 149l288 162h201zM657 0h-276l713 1415h276zM1831 268q0 -150 -82 -226t-229 -75q-297 0 -316 277h191q7 -47 33 -75t85 -28q119 0 118 124t-122 124q-71 0 -120 -47h-164l45 485h499v-172h-327q-4 -35 -6 -69t-6 -74q58 20 129 21
t123 -19q148 -60 149 -246z" />
    <glyph glyph-name="twofifths" unicode="&#x2156;" horiz-adv-x="1918" 
d="M80 1161q61 289 345 289q154 0 232 -71t78 -193q0 -84 -37 -145t-93 -118t-95 -87t-80 -64h315l-22 -182h-610v151q27 25 93 76t203 173q105 93 105 190q0 38 -24 64t-74 26t-81 -28q-32 -28 -46 -107zM768 0h-276l712 1415h277zM1831 268q0 -150 -82 -226t-229 -75
q-297 0 -316 277h191q7 -47 33 -75t85 -28q119 0 118 124t-122 124q-71 0 -120 -47h-164l45 485h499v-172h-327q-4 -35 -6 -69t-6 -74q58 20 129 21t123 -19q148 -60 149 -246z" />
    <glyph glyph-name="threefifths" unicode="&#x2157;" horiz-adv-x="1918" 
d="M438 719q131 -1 131 105t-129 106h-86v164h88q55 0 84 28t29 70q0 96 -117 94q-53 0 -88 -26t-47 -97l-192 27q23 116 99 188t236 72q158 0 232 -69t74 -176t-113 -181q67 -27 99 -80t32 -110q0 -125 -76 -202t-247 -77t-265 98q-69 76 -76 209h193q15 -143 139 -143z
M760 0h-277l713 1415h277zM1831 268q0 -150 -82 -226t-229 -75q-297 0 -316 277h191q7 -47 33 -75t85 -28q119 0 118 124t-122 124q-71 0 -120 -47h-164l45 485h499v-172h-327q-4 -35 -6 -69t-6 -74q58 20 129 21t123 -19q148 -60 149 -246z" />
    <glyph glyph-name="fourfifths" unicode="&#x2158;" horiz-adv-x="1918" 
d="M465 920v254l-189 -254h189zM659 1415v-495h107l-21 -164h-86v-166h-194v166h-393v129l399 530h188zM752 0h-277l713 1415h276zM1831 268q0 -150 -82 -226t-229 -75q-297 0 -316 277h191q7 -47 33 -75t85 -28q119 0 118 124t-122 124q-71 0 -120 -47h-164l45 485h499
v-172h-327q-4 -35 -6 -69t-6 -74q58 20 129 21t123 -19q148 -60 149 -246z" />
    <glyph glyph-name="onesixth" unicode="&#x2159;" horiz-adv-x="1918" 
d="M516 1415v-825h-217v616l-190 -102l-82 149l288 162h201zM659 0h-276l713 1415h276zM1372 274q0 -59 30 -103t90 -44q142 0 142 127q0 59 -31 95t-89 36t-100 -26t-42 -85zM1568 526q122 0 192 -72q69 -72 69 -194q0 -123 -90 -208q-91 -85 -242 -85q-187 0 -270 131
q-63 98 -65 249q-2 270 106 403q95 114 250 113q156 -1 224 -67t87 -184l-197 -20q-4 51 -33 77t-73 25q-145 0 -160 -221q80 53 202 53z" />
    <glyph glyph-name="fivesixths" unicode="&#x215a;" horiz-adv-x="1918" 
d="M543 853q0 124 -121 124q-72 0 -121 -47h-164l45 485h500v-172h-328q-4 -35 -6 -69t-6 -74q64 22 132 22q269 0 269 -280q1 -136 -81 -212t-230 -75q-297 0 -315 276h190q17 -102 119 -102q117 0 117 124zM748 0h-277l713 1415h276zM1372 274q0 -59 30 -103t90 -44
q142 0 142 127q0 59 -31 95t-89 36t-100 -26t-42 -85zM1568 526q122 0 192 -72q69 -72 69 -194q0 -123 -90 -208q-91 -85 -242 -85q-187 0 -270 131q-63 98 -65 249q-2 270 106 403q95 114 250 113q156 -1 224 -67t87 -184l-197 -20q-4 51 -33 77t-73 25q-145 0 -160 -221
q80 53 202 53z" />
    <glyph glyph-name="oneeighth" unicode="&#x215b;" horiz-adv-x="1918" 
d="M516 1415v-825h-217v616l-190 -102l-82 149l288 162h201zM639 0h-277l713 1415h277zM1634 234q0 102 -136 102q-70 0 -104 -30t-34 -76t36 -74t102 -29q66 0 102 30q34 30 34 77zM1376 604q0 -100 117 -100t117 102q0 41 -27 69q-27 27 -87 27t-90 -28t-30 -70zM1833 235
q0 -127 -84 -197t-255 -69q-171 0 -252 71t-81 191t129 197q-102 68 -101 179t76 183t235 70q160 0 234 -68q72 -68 72 -182q0 -113 -104 -180q131 -68 131 -195z" />
    <glyph glyph-name="threeeighths" unicode="&#x215c;" horiz-adv-x="1918" 
d="M438 719q131 -1 131 105t-129 106h-86v164h88q55 0 84 28t29 70q0 96 -117 94q-53 0 -88 -26t-47 -97l-192 27q23 116 99 188t236 72q158 0 232 -69t74 -176t-113 -181q67 -27 99 -80t32 -110q0 -125 -76 -202t-247 -77t-265 98q-69 76 -76 209h193q15 -143 139 -143z
M752 0h-277l713 1415h276zM1634 234q0 102 -136 102q-70 0 -104 -30t-34 -76t36 -74t102 -29q66 0 102 30q34 30 34 77zM1376 604q0 -100 117 -100t117 102q0 41 -27 69q-27 27 -87 27t-90 -28t-30 -70zM1833 235q0 -127 -84 -197t-255 -69q-171 0 -252 71t-81 191t129 197
q-102 68 -101 179t76 183t235 70q160 0 234 -68q72 -68 72 -182q0 -113 -104 -180q131 -68 131 -195z" />
    <glyph glyph-name="fiveeighths" unicode="&#x215d;" horiz-adv-x="1918" 
d="M543 853q0 124 -121 124q-72 0 -121 -47h-164l45 485h500v-172h-328q-4 -35 -6 -69t-6 -74q64 22 132 22q269 0 269 -280q1 -136 -81 -212t-230 -75q-297 0 -315 276h190q17 -102 119 -102q117 0 117 124zM741 0h-276l713 1415h276zM1634 234q0 102 -136 102
q-70 0 -104 -30t-34 -76t36 -74t102 -29q66 0 102 30q34 30 34 77zM1376 604q0 -100 117 -100t117 102q0 41 -27 69q-27 27 -87 27t-90 -28t-30 -70zM1833 235q0 -127 -84 -197t-255 -69q-171 0 -252 71t-81 191t129 197q-102 68 -101 179t76 183t235 70q160 0 234 -68
q72 -68 72 -182q0 -113 -104 -180q131 -68 131 -195z" />
    <glyph glyph-name="seveneighths" unicode="&#x215e;" horiz-adv-x="1918" 
d="M57 1231v184h633v-158q-176 -324 -270 -667h-232q117 372 252 641h-383zM639 0h-277l713 1415h277zM1634 234q0 102 -136 102q-70 0 -104 -30t-34 -76t36 -74t102 -29q66 0 102 30q34 30 34 77zM1376 604q0 -100 117 -100t117 102q0 41 -27 69q-27 27 -87 27t-90 -28
t-30 -70zM1833 235q0 -127 -84 -197t-255 -69q-171 0 -252 71t-81 191t129 197q-102 68 -101 179t76 183t235 70q160 0 234 -68q72 -68 72 -182q0 -113 -104 -180q131 -68 131 -195z" />
    <glyph glyph-name="partialdiff" unicode="&#x2202;" 
d="M852 889q0 159 -55 244.5t-145 85.5q-91 0 -145 -31t-77 -121l-250 37q41 186 155 268t312 82q325 0 397 -221t72 -401q0 -395 -136.5 -632t-451.5 -237q-209 0 -338 131t-129 335t132 348.5t340 144.5t315 -136q4 36 4 103zM784 468q0 230 -222 230q-112 0 -175 -78
t-63 -188t61.5 -176t165.5 -66t168.5 80t64.5 198z" />
    <glyph glyph-name="Delta" unicode="&#x2206;" horiz-adv-x="1298" 
d="M944 264l-301 879l-301 -879h602zM1257 0h-1216v203l459 1259h297l460 -1259v-203z" />
    <glyph glyph-name="product" unicode="&#x220f;" horiz-adv-x="1468" 
d="M150 1462h1169v-1462h-305v1188h-559v-1188h-305v1462z" />
    <glyph glyph-name="summation" unicode="&#x2211;" horiz-adv-x="1206" 
d="M41 1462h1122v-250h-741l381 -577l-391 -594h774l-31 -250h-1114v184l428 656l-428 639v192z" />
    <glyph glyph-name="minus" unicode="&#x2212;" 
d="M158 821h897v-248h-897v248z" />
    <glyph glyph-name="uni2215" unicode="&#x2215;" horiz-adv-x="231" 
d="M-102 0h-277l713 1415h276z" />
    <glyph glyph-name="uni2219" unicode="&#x2219;" horiz-adv-x="503" 
d="M106 928h293v-330h-293v330z" />
    <glyph glyph-name="radical" unicode="&#x221a;" horiz-adv-x="1277" 
d="M82 592v252h387l154 -434l354 1087h301l-520 -1497h-264l-240 592h-172z" />
    <glyph glyph-name="infinity" unicode="&#x221e;" 
d="M958 697q0 163 -118 163q-56 0 -94 -52.5t-50 -113.5q21 -102 71 -129.5t90 -27.5t70.5 37.5t30.5 122.5zM45 698.5q0 178.5 82.5 271.5t197.5 93t177.5 -45t103.5 -111q102 156 268 156q128 0 210.5 -93t82.5 -271.5t-82.5 -271.5t-197.5 -93t-177.5 44.5t-103.5 110.5
q-101 -155 -268 -155q-128 0 -210.5 93t-82.5 271.5zM254 699q0 -162 118 -162q56 0 94 52t50 113q-23 102 -72 130t-89 28t-70.5 -38t-30.5 -123z" />
    <glyph glyph-name="integral" unicode="&#x222b;" horiz-adv-x="659" 
d="M434 1479q146 0 225 -37l-38 -209q-59 23 -109 23t-72 -21t-32.5 -60.5t6.5 -142.5l116 -831q46 -319 -91 -383t-209 -64q-147 0 -230 39l39 211q63 -25 121 -24q109 0 104.5 92t-10.5 131l-115 829q-46 322 87.5 384.5t207.5 62.5z" />
    <glyph glyph-name="approxequal" unicode="&#x2248;" 
d="M61 201q0 223 80 323.5t254 100.5q66 0 119 -23.5t99 -51.5t86 -51.5t81 -23.5q113 0 113 146h256q0 -223 -79 -323.5t-253 -100.5q-96 0 -180 52t-125 75.5t-80 23.5q-113 0 -113 -147h-258zM61 727q0 223 80 323.5t254 100.5q66 0 119 -23.5t99 -51t86 -51.5t81 -24
q113 0 113 146h256q0 -223 -79 -324.5t-253 -101.5q-96 0 -180 52t-125 75.5t-80 23.5q-113 0 -113 -145h-258z" />
    <glyph glyph-name="notequal" unicode="&#x2260;" 
d="M158 348v248h276l101 205h-377v248h497l107 217h244l-107 -217h156v-248h-277l-100 -205h377v-248h-500l-106 -219h-242l106 219h-155z" />
    <glyph glyph-name="lessequal" unicode="&#x2264;" 
d="M150 248h937v-248h-937v248zM150 909l937 348v-270l-606 -186l606 -189v-274l-937 346v225z" />
    <glyph glyph-name="greaterequal" unicode="&#x2265;" 
d="M1063 0h-938v248h938v-248zM1063 684l-938 -346v274l606 189l-606 186v270l938 -348v-225z" />
    <glyph glyph-name="lozenge" unicode="&#x25ca;" 
d="M850 731l-246 397l-239 -397l239 -397zM72 731l442 731h184l443 -731l-443 -731h-184z" />
    <glyph glyph-name="fi" unicode="&#xf001;" horiz-adv-x="1320" 
d="M197 846h-168v223h168v35q0 191 102 283t249 92t245 -31l-39 -209q-66 16 -123 16t-103 -31q-45 -32 -45 -114v-41h248v-223h-248v-846h-286v846zM901 1462h295v-258h-295v258zM905 1069h287v-1069h-287v1069z" />
    <glyph glyph-name="fl" unicode="&#xf002;" horiz-adv-x="1320" 
d="M197 846h-168v223h168v35q0 191 102 283t249 92t245 -31l-39 -209q-66 16 -123 16t-103 -31q-45 -32 -45 -114v-41h248v-223h-248v-846h-286v846zM905 1462h287v-1462h-287v1462z" />
    <glyph glyph-name="oneseventh" unicode="&#xf506;" horiz-adv-x="1918" 
d="M516 1415v-825h-217v616l-190 -102l-82 149l288 162h201zM631 0h-277l713 1415h276zM1171 643v184h633v-157q-176 -323 -270 -668h-231q118 377 251 641h-383z" />
    <glyph glyph-name="twosevenths" unicode="&#xf507;" horiz-adv-x="1918" 
d="M80 1161q61 289 345 289q154 0 232 -71t78 -193q0 -84 -37 -145t-93 -118t-95 -87t-80 -64h315l-22 -182h-610v151q27 25 93 76t203 173q105 93 105 190q0 38 -24 64t-74 26t-81 -28q-32 -28 -46 -107zM729 0h-276l712 1415h277zM1171 643v184h633v-157
q-176 -323 -270 -668h-231q118 377 251 641h-383z" />
    <glyph glyph-name="threesevenths" unicode="&#xf508;" horiz-adv-x="1918" 
d="M438 719q131 -1 131 105t-129 106h-86v164h88q55 0 84 28t29 70q0 96 -117 94q-53 0 -88 -26t-47 -97l-192 27q23 116 99 188t236 72q158 0 232 -69t74 -176t-113 -181q67 -27 99 -80t32 -110q0 -125 -76 -202t-247 -77t-265 98q-69 76 -76 209h193q15 -143 139 -143z
M717 0h-277l713 1415h277zM1171 643v184h633v-157q-176 -323 -270 -668h-231q118 377 251 641h-383z" />
    <glyph glyph-name="foursevenths" unicode="&#xf509;" horiz-adv-x="1918" 
d="M465 920v254l-189 -254h189zM659 1415v-495h107l-21 -164h-86v-166h-194v166h-393v129l399 530h188zM711 0h-277l713 1415h276zM1171 643v184h633v-157q-176 -323 -270 -668h-231q118 377 251 641h-383z" />
    <glyph glyph-name="fivesevenths" unicode="&#xf50a;" horiz-adv-x="1918" 
d="M543 853q0 124 -121 124q-72 0 -121 -47h-164l45 485h500v-172h-328q-4 -35 -6 -69t-6 -74q64 22 132 22q269 0 269 -280q1 -136 -81 -212t-230 -75q-297 0 -315 276h190q17 -102 119 -102q117 0 117 124zM707 0h-277l713 1415h276zM1171 643v184h633v-157
q-176 -323 -270 -668h-231q118 377 251 641h-383z" />
    <glyph glyph-name="sixsevenths" unicode="&#xf50b;" horiz-adv-x="1918" 
d="M297 862q-1 -59 29 -103t90 -44q142 0 143 127q0 59 -32 95t-89 36t-99 -26t-42 -85zM451 1282q-145 0 -160 -221q81 53 203 53t191 -72t69 -194t-90 -208q-91 -85 -242 -85q-187 0 -270 131q-66 102 -66 251t29 245q81 268 334 268q151 0 219 -67t86 -183l-197 -20
q-4 50 -33 76t-73 26zM698 0h-276l713 1415h276zM1171 643v184h633v-157q-176 -323 -270 -668h-231q118 377 251 641h-383z" />
    <glyph glyph-name="oneninth" unicode="&#xf50c;" horiz-adv-x="1918" 
d="M516 1415v-825h-217v616l-190 -102l-82 149l288 162h201zM639 0h-277l713 1415h277zM1487 700q-135 0 -135 -120q0 -59 31 -98q33 -38 90 -38t99 26t42 85t-30 102t-97 43zM1226 376q-69 75 -69 198t91 206q91 84 241 82q186 0 270 -143q63 -105 65 -259q2 -274 -91 -384
q-93 -109 -252 -109q-300 0 -320 256h197q8 -53 40 -71t90 -18t98 55q38 56 34 167q-78 -55 -201 -55q-124 0 -193 75z" />
    <glyph glyph-name="twoninths" unicode="&#xf50d;" horiz-adv-x="1918" 
d="M80 1161q61 289 345 289q154 0 232 -71t78 -193q0 -84 -37 -145t-93 -118t-95 -87t-80 -64h315l-22 -182h-610v151q27 25 93 76t203 173q105 93 105 190q0 38 -24 64t-74 26t-81 -28q-32 -28 -46 -107zM756 0h-277l713 1415h276zM1487 700q-135 0 -135 -120q0 -59 31 -98
q33 -38 90 -38t99 26t42 85t-30 102t-97 43zM1226 376q-69 75 -69 198t91 206q91 84 241 82q186 0 270 -143q63 -105 65 -259q2 -274 -91 -384q-93 -109 -252 -109q-300 0 -320 256h197q8 -53 40 -71t90 -18t98 55q38 56 34 167q-78 -55 -201 -55q-124 0 -193 75z" />
    <glyph glyph-name="fourninths" unicode="&#xf50e;" horiz-adv-x="1918" 
d="M465 920v254l-189 -254h189zM659 1415v-495h107l-21 -164h-86v-166h-194v166h-393v129l399 530h188zM735 0h-276l712 1415h277zM1487 700q-135 0 -135 -120q0 -59 31 -98q33 -38 90 -38t99 26t42 85t-30 102t-97 43zM1226 376q-69 75 -69 198t91 206q91 84 241 82
q186 0 270 -143q63 -105 65 -259q2 -274 -91 -384q-93 -109 -252 -109q-300 0 -320 256h197q8 -53 40 -71t90 -18t98 55q38 56 34 167q-78 -55 -201 -55q-124 0 -193 75z" />
    <glyph glyph-name="fiveninths" unicode="&#xf50f;" horiz-adv-x="1918" 
d="M543 853q0 124 -121 124q-72 0 -121 -47h-164l45 485h500v-172h-328q-4 -35 -6 -69t-6 -74q64 22 132 22q269 0 269 -280q1 -136 -81 -212t-230 -75q-297 0 -315 276h190q17 -102 119 -102q117 0 117 124zM733 0h-276l712 1415h277zM1487 700q-135 0 -135 -120
q0 -59 31 -98q33 -38 90 -38t99 26t42 85t-30 102t-97 43zM1226 376q-69 75 -69 198t91 206q91 84 241 82q186 0 270 -143q63 -105 65 -259q2 -274 -91 -384q-93 -109 -252 -109q-300 0 -320 256h197q8 -53 40 -71t90 -18t98 55q38 56 34 167q-78 -55 -201 -55
q-124 0 -193 75z" />
    <glyph glyph-name="sevenninths" unicode="&#xf510;" horiz-adv-x="1918" 
d="M57 1231v184h633v-158q-176 -324 -270 -667h-232q117 372 252 641h-383zM631 0h-277l713 1415h276zM1487 700q-135 0 -135 -120q0 -59 31 -98q33 -38 90 -38t99 26t42 85t-30 102t-97 43zM1226 376q-69 75 -69 198t91 206q91 84 241 82q186 0 270 -143q63 -105 65 -259
q2 -274 -91 -384q-93 -109 -252 -109q-300 0 -320 256h197q8 -53 40 -71t90 -18t98 55q38 56 34 167q-78 -55 -201 -55q-124 0 -193 75z" />
    <glyph glyph-name="eightninths" unicode="&#xf511;" horiz-adv-x="1918" 
d="M422 924q-70 0 -104 -30t-33 -76q0 -46 36 -75q37 -29 103 -29t100 30t35 77q0 47 -33 75q-34 28 -104 28zM301 1192q0 -100 117 -100t117 102q0 41 -27 69q-27 27 -87 27t-90 -28t-30 -70zM425 1448q161 0 233 -69t73 -182q0 -113 -104 -179q131 -69 131 -195
q0 -127 -84 -197t-255 -69q-171 0 -252 71t-81 191t129 197q-102 68 -101 179t75 182q75 71 236 71zM743 0h-276l713 1415h276zM1487 700q-135 0 -135 -120q0 -59 31 -98q33 -38 90 -38t99 26t42 85t-30 102t-97 43zM1226 376q-69 75 -69 198t91 206q91 84 241 82
q186 0 270 -143q63 -105 65 -259q2 -274 -91 -384q-93 -109 -252 -109q-300 0 -320 256h197q8 -53 40 -71t90 -18t98 55q38 56 34 167q-78 -55 -201 -55q-124 0 -193 75z" />
    <glyph glyph-name="zero.alt" unicode="&#xf800;" 
d="M604 213q192 0 230 288q12 91 12 208t-12 207q-38 288 -230 288q-187 0 -225 -288q-12 -92 -12 -208q0 -370 125 -461q44 -34 112 -34zM1145 708q-1 -384 -143 -564t-398 -181q-256 0 -396 180t-140 560t142 565q142 186 398 186t396 -181t141 -565z" />
    <glyph glyph-name="one.alt" unicode="&#xf801;" horiz-adv-x="1007" 
d="M758 1415v-1415h-293v1083l-277 -165l-127 210l453 287h244z" />
    <glyph glyph-name="two.alt" unicode="&#xf802;" 
d="M791 1016q-1 78 -51 134t-144 56t-152 -46t-88 -175l-278 33q41 199 148 306q130 130 374 130t367 -117t123 -317q0 -236 -196 -441q-98 -104 -203 -190t-163 -139h582l-31 -250h-981v215q88 78 174 149q86 72 173 148t152 137t108 119t65 114t21 134z" />
    <glyph glyph-name="three.alt" unicode="&#xf803;" horiz-adv-x="1202" 
d="M1112 418q0 -323 -278 -421q-96 -34 -241 -34q-269 0 -409 158q-111 127 -118 328h292q10 -133 68 -187t162 -53q230 0 229 199q0 104 -52 150t-173 46h-143v252h159q182 0 183 182q0 172 -195 172q-98 0 -158 -45t-86 -159l-274 36q40 196 162 304t355 108t360 -107
q126 -107 124 -276q0 -216 -190 -319q223 -92 223 -334z" />
    <glyph glyph-name="four.alt" unicode="&#xf804;" horiz-adv-x="1193" 
d="M690 547v493l-344 -493h344zM963 1415v-868h180l-31 -230h-149v-317h-273v317h-637v195l647 903h263z" />
    <glyph glyph-name="five.alt" unicode="&#xf805;" 
d="M1108 450q0 -225 -130 -356t-362 -131t-363 110q-132 110 -144 339h286q9 -98 57 -150t160 -51q211 0 211 252q0 121 -53 177t-179 56t-210 -96h-242l70 815h815v-248h-575l-27 -301q91 61 225 63q133 1 217 -37q244 -111 244 -442z" />
    <glyph glyph-name="six.alt" unicode="&#xf806;" 
d="M848 449q0 247 -223 245q-162 0 -214 -129q-19 -47 -17 -109t18 -110q47 -153 204 -153q98 0 165 63t67 193zM100 597q0 463 164 675q141 182 391 182q211 0 319 -88t136 -272l-266 -33q-23 80 -49 106q-48 48 -144 50q-133 0 -197 -113t-73 -305q113 121 313 125
q209 0 320 -120q110 -120 110 -346t-137 -361q-137 -134 -373 -134q-275 0 -408 210q-106 169 -106 424z" />
    <glyph glyph-name="seven.alt" unicode="&#xf807;" horiz-adv-x="1171" 
d="M70 1167v248h999v-221q-302 -559 -473 -1194h-317q194 630 464 1167h-673z" />
    <glyph glyph-name="eight.alt" unicode="&#xf808;" 
d="M606 608q-258 0 -258 -207q0 -96 60 -153q60 -58 198 -58t198 60t60 152q0 94 -56 150t-202 56zM604 840q227 0 227 189q0 89 -50 147t-174 57t-179 -57t-55 -148t54 -140t177 -48zM606 1454q247 0 372 -108q126 -108 126 -293q0 -219 -178 -320q98 -47 157 -131t60 -201
q0 -203 -135 -321q-134 -118 -404 -117q-270 0 -403 118t-133 320q0 111 60 197q61 86 153 133q-178 100 -179 324q0 86 32 158q64 149 250 210q94 31 222 31z" />
    <glyph glyph-name="nine.alt" unicode="&#xf809;" 
d="M586 717q160 0 214 136q37 94 1 216q-46 153 -207 156q-98 0 -166 -65t-68 -181t52 -189t174 -73zM506 489q-200 0 -314 122t-114 347t141 361q141 135 377 135q278 0 409 -215q105 -174 105 -442q0 -484 -146 -678q-69 -90 -165 -123t-209 -33q-229 0 -348 96t-136 299
h273q10 -76 53 -118t150 -41q135 -1 190 107t57 315q-124 -132 -323 -132z" />
    <glyph glyph-name="zero.sups" unicode="&#xf80a;" horiz-adv-x="843" 
d="M423 1004q67 0 105 52t37 191q0 139 -38 193q-39 54 -105 55q-66 0 -104 -54q-38 -53 -38 -193t38 -192t105 -52zM43 1248q0 116 30 201q88 249 351 249t348 -249q29 -85 29 -202t-28 -201q-80 -243 -350 -243t-351 243q-29 86 -29 202z" />
    <glyph glyph-name="one.sups" unicode="&#xf80b;" horiz-adv-x="843" 
d="M575 1663v-825h-217v616l-190 -102l-82 149l289 162h200z" />
    <glyph glyph-name="two.sups" unicode="&#xf80c;" horiz-adv-x="843" 
d="M80 1409q61 289 345 289q154 0 232 -71t78 -193q1 -84 -29 -132q-77 -126 -196 -218q-39 -30 -80 -64h315l-22 -182h-610v151q27 25 73 61t150 124q103 88 141 136q37 47 37 101q0 107 -94 107q-53 0 -85 -28t-46 -108z" />
    <glyph glyph-name="three.sups" unicode="&#xf80d;" horiz-adv-x="843" 
d="M438 967q131 -1 131 105t-129 106h-86v163h88q55 0 84 28t29 71q0 94 -117 94q-53 0 -88 -26t-47 -97l-192 27q23 116 99 188t236 72q158 0 232 -69t74 -176t-113 -181q67 -27 99 -80t32 -111q0 -125 -76 -201t-248 -77q-172 0 -264 98q-69 76 -76 209h193
q15 -145 139 -143z" />
    <glyph glyph-name="four.sups" unicode="&#xf80e;" horiz-adv-x="843" 
d="M465 1167v254l-189 -254h189zM659 1663v-496h107l-21 -163h-86v-166h-194v166h-393v129l399 530h188z" />
    <glyph glyph-name="five.sups" unicode="&#xf80f;" horiz-adv-x="843" 
d="M543 1101q0 124 -121 124q-70 0 -121 -47h-164l45 485h500v-172h-328q-4 -35 -6 -70t-6 -73q64 22 132 22q137 0 203 -73t66 -208q1 -135 -81 -211t-230 -75q-297 0 -315 276h190q17 -102 119 -102q117 0 117 124z" />
    <glyph glyph-name="six.sups" unicode="&#xf810;" horiz-adv-x="843" 
d="M297 1110q-1 -59 29 -103t90 -44q142 0 143 127q0 59 -32 95t-89 36t-99 -26t-42 -85zM451 1530q-145 0 -160 -221q81 53 203 53t191 -72t69 -194t-92 -209q-92 -86 -240 -84q-187 0 -270 131q-66 102 -66 251t29 245q81 268 334 268q151 0 219 -67t86 -183l-197 -21
q-4 51 -33 77t-73 26z" />
    <glyph glyph-name="seven.sups" unicode="&#xf811;" horiz-adv-x="843" 
d="M96 1479v184h633v-158q-176 -324 -270 -667h-232q117 372 252 641h-383z" />
    <glyph glyph-name="eight.sups" unicode="&#xf812;" horiz-adv-x="843" 
d="M285 1066q0 -46 36 -75q37 -29 103 -29t100 30t35 77q0 47 -33 75q-34 28 -104 28t-104 -30q-33 -30 -33 -76zM301 1440q0 -100 117 -100t117 102q0 40 -27 68t-87 28t-90 -28t-30 -70zM425 1696q161 0 233 -69t73 -182q0 -113 -104 -179q131 -69 131 -195
q0 -127 -84 -197t-255 -70t-252 72q-81 71 -81 191t129 197q-102 68 -101 179t75 182q75 71 236 71z" />
    <glyph glyph-name="nine.sups" unicode="&#xf813;" horiz-adv-x="843" 
d="M397 1280q57 0 100 26q42 26 42 85t-30 102t-90 43q-143 0 -143 -121q0 -59 32 -97t89 -38zM343 1137q-125 1 -193 75t-68 198t90 206t242 82q186 0 270 -144q63 -105 65 -259q3 -393 -208 -470q-63 -23 -140 -22q-295 0 -315 256h197q8 -53 40 -71t76 -19q72 0 111 56
t35 167q-78 -55 -202 -55z" />
    <glyph glyph-name="zero.sinf" unicode="&#xf814;" horiz-adv-x="843" 
d="M423 -80q67 0 105 52t37 192q0 140 -38 193q-39 55 -105 55t-104 -54t-38 -194q0 -139 38 -192q38 -52 105 -52zM423 -281q-268 0 -351 243q-29 85 -29 202t30 202q59 166 200 222q69 26 150 26t151 -26t119 -82q50 -55 79 -140t29 -202t-28 -202t-79 -138
q-101 -105 -271 -105z" />
    <glyph glyph-name="one.sinf" unicode="&#xf815;" horiz-adv-x="843" 
d="M575 580v-826h-217v617l-190 -103l-82 150l289 162h200z" />
    <glyph glyph-name="two.sinf" unicode="&#xf816;" horiz-adv-x="843" 
d="M735 350q0 -85 -37 -146t-93 -117q-56 -57 -95 -87t-80 -63h315l-22 -183h-610v152q27 24 73 60t151 126q104 90 140 135q37 46 37 101q0 108 -94 106q-53 0 -85 -28t-46 -107l-209 27q61 291 352 288q147 0 225 -70t78 -194z" />
    <glyph glyph-name="three.sinf" unicode="&#xf817;" horiz-adv-x="843" 
d="M438 -117q131 0 131 107t-129 104h-86v164h88q55 0 84 28t29 70q0 95 -117 95q-53 0 -88 -26t-47 -97l-192 26q23 115 99 188q78 72 236 72t232 -68t74 -176q0 -107 -113 -182q67 -28 99 -80t32 -110q0 -125 -76 -202t-248 -77t-264 99q-69 76 -76 209h193
q15 -144 139 -144z" />
    <glyph glyph-name="four.sinf" unicode="&#xf818;" horiz-adv-x="843" 
d="M426 84v254l-188 -254h188zM621 580v-496h106l-20 -164h-86v-166h-195v166h-393v129l399 531h189z" />
    <glyph glyph-name="five.sinf" unicode="&#xf819;" horiz-adv-x="843" 
d="M543 18q0 124 -121 123q-72 0 -121 -47h-164l45 486h500v-172h-328q-4 -35 -6 -70t-6 -74q67 23 134 23q134 0 200 -73q67 -73 67 -208q1 -136 -81 -212t-230 -75q-297 0 -315 277h190q8 -47 34 -75t85 -27q117 0 117 124z" />
    <glyph glyph-name="six.sinf" unicode="&#xf81a;" horiz-adv-x="843" 
d="M438 137q-57 1 -99 -25t-42 -86q-1 -60 29 -103q30 -44 90 -44q142 0 143 127q0 59 -32 95t-89 36zM422 -281q-187 0 -270 131q-66 102 -66 252q0 394 221 486q66 27 142 26q151 0 219 -66t86 -183l-197 -21q-4 51 -33 77t-73 25q-145 0 -160 -221q81 53 203 53t191 -71
q69 -72 69 -194t-90 -209q-91 -85 -242 -85z" />
    <glyph glyph-name="seven.sinf" unicode="&#xf81b;" horiz-adv-x="843" 
d="M96 395v185h633v-158q-176 -323 -270 -668h-232q117 372 252 641h-383z" />
    <glyph glyph-name="eight.sinf" unicode="&#xf81c;" horiz-adv-x="843" 
d="M559 -14q-1 102 -137 102q-70 0 -104 -30t-33 -75q0 -46 36 -75q37 -29 103 -29t100 30t35 77zM301 356q0 -100 117 -100t117 102q0 41 -27 69t-87 28t-90 -29t-30 -70zM731 362q0 -113 -104 -180q131 -69 131 -195t-84 -196t-255 -70t-252 71t-81 191t129 197
q-102 68 -101 179q1 112 75 183q75 70 236 70t233 -68t73 -182z" />
    <glyph glyph-name="nine.sinf" unicode="&#xf81d;" horiz-adv-x="843" 
d="M419 453q-143 0 -143 -116q0 -64 32 -102t89 -38t100 25q42 26 42 85t-30 103t-90 43zM150 128q-68 75 -68 199t91 206q91 83 241 81q186 0 270 -143q63 -105 65 -259q2 -275 -91 -384t-252 -109q-158 0 -234 66t-86 190h197q8 -53 40 -71t90 -18t97 56t35 167
q-76 -54 -201 -55q-126 -1 -194 74z" />
    <glyph glyph-name="ogonek.cap" horiz-adv-x="847" 
d="M227 -238q0 75 43 130t123 108h228q-152 -85 -152 -166q0 -67 74 -67q38 0 71 6v-179q-46 -6 -129 -6q-142 0 -200 49.5t-58 124.5z" />
    <glyph glyph-name="ring.cap" horiz-adv-x="847" 
d="M330 1755q0 -98 93 -98t93 98t-93 98t-93 -98zM176 1753.5q0 61.5 19.5 107.5t53.5 75.5t79 45t94 15.5t94 -15.5t79 -45t54.5 -75.5t20.5 -107.5t-20.5 -106.5t-54.5 -75t-79 -44.5t-94 -14.5t-94 14.5t-79 44.5t-53.5 75t-19.5 106.5z" />
    <glyph glyph-name="caron.cap" horiz-adv-x="847" 
d="M31 1886h245l148 -149l145 149h246l-248 -297h-288z" />
    <glyph glyph-name="macron.cap" horiz-adv-x="847" 
d="M106 1845h635v-227h-635v227z" />
    <glyph glyph-name="dieresis.cap" horiz-adv-x="847" 
d="M500 1866h274v-264h-274v264zM74 1866h274v-264h-274v264z" />
    <glyph glyph-name="cedilla.cap" horiz-adv-x="847" 
d="M360 -315q84 0 84 45t-25.5 59t-92.5 14h-76l82 209h162l-43 -116q196 -20 196 -175q0 -178 -295 -178q-76 0 -153 13v143q77 -14 161 -14z" />
    <glyph glyph-name="tilde.cap" horiz-adv-x="847" 
d="M20 1583q0 154 69 222.5t185 68.5q59 0 119 -31t89.5 -45t63.5 -14t55.5 16.5t21.5 65.5h202q0 -154 -67.5 -221.5t-184.5 -67.5q-63 0 -120.5 31.5t-86 46t-63.5 14.5q-80 0 -80 -86h-203z" />
    <glyph glyph-name="grave.cap" horiz-adv-x="847" 
d="M459 1878l262 -297h-268l-326 297h332z" />
    <glyph glyph-name="acute.cap" horiz-adv-x="847" 
d="M389 1878h332l-326 -297h-268z" />
    <glyph glyph-name="hungarumlaut.cap" horiz-adv-x="847" 
d="M178 1878h316l-320 -297h-252zM612 1878h316l-320 -297h-252z" />
    <glyph glyph-name="dotaccent.cap" horiz-adv-x="847" 
d="M281 1872h286v-277h-286v277z" />
    <glyph glyph-name="caron.alt" horiz-adv-x="847" 
d="M322 1462h268l-123 -499h-211z" />
    <glyph glyph-name="highrevcomma" horiz-adv-x="847" 
d="M408 1534h247l-159 -317h-303z" />
    <glyph glyph-name="revcommaaccent" horiz-adv-x="847" 
d="M408 1534h247l-159 -317h-303z" />
    <glyph glyph-name="i.locl" horiz-adv-x="544" 
d="M125 1462h295v-258h-295v258zM129 1069h287v-1069h-287v1069z" />
    <glyph glyph-name="commaaccent.cap" horiz-adv-x="847" 
d="M348 -135h318l-226 -330h-258z" />
    <glyph glyph-name="commaaccent" horiz-adv-x="847" 
d="M352 -135h303l-215 -318h-247z" />
    <glyph glyph-name="breve.cap" horiz-adv-x="847" 
d="M303 1898q0 -78 37 -109.5t84 -31.5t83 32t36 109h211q0 -160 -91 -238.5t-241 -78.5t-239 79t-89 238h209z" />
    <glyph glyph-name="kgreenlandic.case" horiz-adv-x="1654" 
d="M150 1462h307v-585l538 585h334l-485 -549l538 -913h-340l-411 715l-174 -178v-537h-307v1462zM1436 1462h219l-66 -520h-280z" />
    <glyph glyph-name="napostrophe.case" horiz-adv-x="1783" 
d="M459 1462h274l602 -958v958h297v-1462h-272l-604 950v-950h-297v1462zM70 1462h278l-127 -520h-219z" />
    <glyph glyph-name="circumflex.cap" horiz-adv-x="847" 
d="M279 1878h288l248 -297h-246l-147 148l-146 -148h-245z" />
    </font>
</defs>
</svg>
