<?xml version="1.0" standalone="no"?>
<!DOCTYPE svg PUBLIC "-//W3C//DTD SVG 1.1//EN" "http://www.w3.org/Graphics/SVG/1.1/DTD/svg11.dtd" >
<svg xmlns="http://www.w3.org/2000/svg">
<metadata>
Created by FontPrep 20130207 at Wed Oct 18 17:11:35 2017
 By Benoit Etcheverry
Copyright (c) 2010 Dalton Maag Ltd. All rights reserved. This font may not be altered in any way without prior permission of Dalton Maag Ltd. 
</metadata>
<defs>
<font id="b0b112c59304ea7449fc42f85bb77fe7" horiz-adv-x='1024' >
  <font-face 
    font-family="AktivGrotesk-Regular"
    font-weight="400"
    font-stretch="normal"
    units-per-em="2048"
    panose-1="2 11 6 4 2 2 2 2 2 4"
    ascent="1638"
    descent="-410"
    x-height="1059"
    cap-height="1462"
    bbox="-358 -451 2634 1931.02"
    underline-thickness="174"
    underline-position="-100"
    unicode-range="U+0008-FB04"
  />
<missing-glyph horiz-adv-x="1040" 
d="M834 102v1356h-625v-1356h625zM102 1561h834v-1561h-834v1561z" />
    <glyph glyph-name="f_f" unicode="ff" horiz-adv-x="1368" 
d="M1235 1331q-70 0 -121 -38t-51 -138v-96h268v-141h-268v-918h-178v918h-166v141h166v92q0 160 90 243t211 84q122 1 200 -24l-28 -139q-53 16 -123 16zM551 1331q-70 0 -121 -38t-51 -138v-96h268v-141h-268v-918h-178v918h-166v141h166v92q0 160 90 243t211 84
q122 1 200 -24l-28 -139q-53 16 -123 16z" />
    <glyph glyph-name="f_i" unicode="fi" horiz-adv-x="1146" 
d="M551 1331q-70 0 -121 -38t-51 -138v-96h268v-141h-268v-918h-178v918h-166v141h166v92q0 160 90 243t211 84q122 1 200 -24l-28 -139q-53 16 -123 16zM819 1462h191v-207h-191v207zM825 1059h179v-1059h-179v1059z" />
    <glyph glyph-name="f_l" unicode="fl" horiz-adv-x="1146" 
d="M551 1331q-70 0 -121 -38t-51 -138v-96h268v-141h-268v-918h-178v918h-166v141h166v92q0 160 90 243t211 84q122 1 200 -24l-28 -139q-53 16 -123 16zM825 1462h179v-1462h-179v1462z" />
    <glyph glyph-name="f_f_i" unicode="ffi" horiz-adv-x="1830" 
d="M1235 1331q-70 0 -121 -38t-51 -138v-96h268v-141h-268v-918h-178v918h-166v141h166v92q0 160 90 243t211 84q122 1 200 -24l-28 -139q-53 16 -123 16zM551 1331q-70 0 -121 -38t-51 -138v-96h268v-141h-268v-918h-178v918h-166v141h166v92q0 160 90 243t211 84
q122 1 200 -24l-28 -139q-53 16 -123 16zM1503 1462h191v-207h-191v207zM1509 1059h179v-1059h-179v1059z" />
    <glyph glyph-name="f_f_l" unicode="ffl" horiz-adv-x="1830" 
d="M1235 1331q-70 0 -121 -38t-51 -138v-96h268v-141h-268v-918h-178v918h-166v141h166v92q0 160 90 243t211 84q122 1 200 -24l-28 -139q-53 16 -123 16zM551 1331q-70 0 -121 -38t-51 -138v-96h268v-141h-268v-918h-178v918h-166v141h166v92q0 160 90 243t211 84
q122 1 200 -24l-28 -139q-53 16 -123 16zM1509 1462h179v-1462h-179v1462z" />
    <glyph glyph-name=".notdef" horiz-adv-x="1040" 
d="M834 102v1356h-625v-1356h625zM102 1561h834v-1561h-834v1561z" />
    <glyph glyph-name=".null" horiz-adv-x="0" 
 />
    <glyph glyph-name=".null" horiz-adv-x="0" 
 />
    <glyph glyph-name=".null" horiz-adv-x="0" 
 />
    <glyph glyph-name="nonmarkingreturn" unicode="&#x9;" horiz-adv-x="456" 
 />
    <glyph glyph-name="nonmarkingreturn" unicode="&#xd;" horiz-adv-x="456" 
 />
    <glyph glyph-name="space" unicode=" " horiz-adv-x="456" 
 />
    <glyph glyph-name="exclam" unicode="!" horiz-adv-x="471" 
d="M137 238h199v-238h-199v238zM145 1462h183l-6 -1042h-170z" />
    <glyph glyph-name="quotedbl" unicode="&#x22;" horiz-adv-x="684" 
d="M82 1454h180l-14 -516h-154zM422 1454h180l-14 -516h-154z" />
    <glyph glyph-name="numbersign" unicode="#" horiz-adv-x="1212" 
d="M737 494l68 405h-324l-67 -405h323zM37 360v134h217l68 405h-213v133h237l57 357h160l-61 -357h325l58 357h159l-57 -357h187v-133h-209l-68 -405h203v-134h-228l-57 -360h-160l62 360h-326l-59 -360h-158l57 360h-194z" />
    <glyph glyph-name="dollar" unicode="$" horiz-adv-x="1212" 
d="M287 1090q0 -123 52 -182.5t193 -88.5v486q-137 -16 -191 -82.5t-54 -132.5zM918 369q0 99 -53.5 168.5t-196.5 85.5v-508q131 14 190.5 84.5t59.5 169.5zM225 1327q112 103 307 123v172h136v-170q360 -32 422 -371l-168 -30q-39 167 -117 206t-137 48v-510l28 -4
q199 -31 301.5 -127.5t102.5 -275.5t-111.5 -292.5t-320.5 -128.5v-192h-136v194q-423 32 -456 420h174q27 -246 282 -272v530q-132 26 -198 53t-143.5 100t-77.5 248q0 176 112 279z" />
    <glyph glyph-name="percent" unicode="%" horiz-adv-x="1880" 
d="M666 0h-174l718 1415h174zM1260 401q0 -295 190 -295t190 296t-190 294q-190 0 -190 -295zM1451 -39q-159 0 -259 110t-99 329q1 218 101 330t256 112q250 0 330 -245q27 -83 26 -196q0 -326 -210 -413q-66 -27 -145 -27zM238 1008q0 -295 190 -295t190 295t-190 295
t-190 -295zM429 567q-159 0 -259 110t-99 329q1 218 101 330t256 112q250 0 330 -245q27 -83 26 -195q0 -327 -210 -414q-66 -27 -145 -27z" />
    <glyph glyph-name="ampersand" unicode="&#x26;" horiz-adv-x="1304" 
d="M762 1176q0 70 -48 115.5t-130 45.5t-128 -48t-46 -132t43 -149.5t92 -120.5q152 82 184.5 150.5t32.5 138.5zM256 406q0 -293 338 -293q187 0 291 125l-402 473q-110 -66 -168.5 -134.5t-58.5 -170.5zM395 817q-153 184 -153 318q0 156 95.5 245.5t252.5 89.5
t244.5 -85.5t87.5 -215.5q0 -189 -117 -267.5t-174 -113.5l350 -411q50 115 59 311h166q-8 -249 -119 -438l216 -250h-211l-109 127q-156 -160 -415 -160t-377.5 116.5t-118.5 315t129 291t194 127.5z" />
    <glyph glyph-name="quotesingle" unicode="'" horiz-adv-x="344" 
d="M82 1454h180l-14 -516h-154z" />
    <glyph glyph-name="parenleft" unicode="(" horiz-adv-x="538" 
d="M109 624.5q0 241.5 60 471t177 407.5h170q-119 -211 -168 -427t-49 -451.5t49 -451.5t168 -427h-170q-117 178 -177 407.5t-60 471z" />
    <glyph glyph-name="parenright" unicode=")" horiz-adv-x="538" 
d="M240 752q0 363 -217 751h170q117 -178 177 -407.5t60 -471t-60.5 -471t-176.5 -407.5h-170q119 211 168 427t49 579z" />
    <glyph glyph-name="asterisk" unicode="*" horiz-adv-x="798" 
d="M311 1090l-250 73l66 150l217 -113l-29 262h170l-28 -262l217 113l63 -150l-248 -73l193 -209l-133 -97l-148 226l-149 -226l-133 97z" />
    <glyph glyph-name="plus" unicode="+" horiz-adv-x="1212" 
d="M524 618h-393v158h393v422h164v-422h393v-158h-393v-421h-164v421z" />
    <glyph glyph-name="comma" unicode="," horiz-adv-x="456" 
d="M154 244h188l-106 -443h-144z" />
    <glyph glyph-name="hyphen" unicode="-" horiz-adv-x="798" 
d="M98 688h602v-178h-602v178z" />
    <glyph glyph-name="period" unicode="." horiz-adv-x="458" 
d="M127 240h205v-240h-205v240z" />
    <glyph glyph-name="slash" unicode="/" horiz-adv-x="677" 
d="M199 0h-185l465 1503h185z" />
    <glyph glyph-name="zero" unicode="0" horiz-adv-x="1212" 
d="M606 123q92 0 154.5 40t100.5 114.5t55.5 183t17.5 246t-17.5 246t-55.5 184t-100.5 115.5t-154.5 40t-155.5 -40t-101.5 -115.5t-55.5 -184t-17.5 -246t17.5 -246t55.5 -183t101.5 -114.5t155.5 -40zM602 -37q-244 0 -380 179.5t-136 559.5t138.5 566t519 186
t380.5 -655.5t-199.5 -745.5t-322.5 -90z" />
    <glyph glyph-name="one" unicode="1" horiz-adv-x="1212" 
d="M791 1415v-1415h-185v1217l-325 -197l-78 133l422 262h166z" />
    <glyph glyph-name="two" unicode="2" horiz-adv-x="1212" 
d="M121 1065q95 389 495 389q214 0 331.5 -113.5t117.5 -296t-105 -334.5t-309.5 -322.5t-263.5 -223.5h692l-26 -164h-920v147q78 70 168 148t185 162q221 195 306 309t85 251q0 138 -70 206.5t-195 68.5q-208 0 -255.5 -95t-65.5 -159z" />
    <glyph glyph-name="three" unicode="3" horiz-adv-x="1212" 
d="M1081 406q0 -312 -178 -377.5t-311 -65.5q-250 0 -365 124.5t-125 303.5h179q16 -137 85.5 -203.5t223.5 -66.5q306 0 307 276q0 139 -77 198.5t-210 59.5h-161v162h167q117 0 183.5 63.5t66.5 186.5q0 227 -272 227q-139 0 -208 -57t-103 -180l-168 26
q51 260 207.5 315.5t274.5 55.5q224 0 338 -104.5t114 -262.5q0 -121 -49.5 -200.5t-153.5 -132.5q235 -94 235 -348z" />
    <glyph glyph-name="four" unicode="4" horiz-adv-x="1212" 
d="M756 498v682l-490 -682h490zM928 1415v-917h194l-24 -146h-170v-352h-172v352h-676v133l674 930h174z" />
    <glyph glyph-name="five" unicode="5" horiz-adv-x="1212" 
d="M645 909q222 0 328 -127.5t106 -326.5q0 -242 -126 -367t-344 -125q-440 0 -474 399h176q23 -125 88.5 -183t205.5 -58t217 79.5t77 235.5t-66.5 241t-232.5 85t-281 -121h-155l63 774h770v-162h-620l-39 -440q129 96 307 96z" />
    <glyph glyph-name="six" unicode="6" horiz-adv-x="1212" 
d="M928 438q0 231 -105 277.5t-175 46.5q-143 0 -233.5 -78.5t-90.5 -230.5q0 -153 80 -246.5t217 -93.5q138 0 222.5 86t84.5 239zM674 909q216 0 323 -127t107 -341q0 -213 -132.5 -345.5t-353.5 -132.5q-269 0 -381 187.5t-112 449.5q0 470 148.5 662t385.5 192
q195 0 291.5 -83t128.5 -238l-164 -29q-35 106 -74.5 139t-80.5 44t-111 11q-153 0 -245 -133t-103 -442q125 186 373 186z" />
    <glyph glyph-name="seven" unicode="7" horiz-adv-x="1212" 
d="M90 1253v162h965v-151q-330 -609 -508 -1264h-201q202 686 508 1253h-764z" />
    <glyph glyph-name="eight" unicode="8" horiz-adv-x="1212" 
d="M944 383q0 260 -336 260q-268 0 -304 -102.5t-36 -159.5q0 -121 81 -195.5t258 -74.5t257 74.5t80 197.5zM301 1044q0 -247 232.5 -247t305 63.5t72.5 192.5q0 178 -111.5 217t-230.5 39t-193.5 -72.5t-74.5 -192.5zM127 1059q0 176 122 285.5t360 109.5t356 -108
t118 -287q0 -135 -62.5 -216t-152.5 -114q113 -41 185.5 -130t72.5 -220q0 -188 -130 -302t-390 -114t-391 113.5t-131 302.5q0 129 72.5 214t187.5 130q-90 35 -153.5 118t-63.5 218z" />
    <glyph glyph-name="nine" unicode="9" horiz-adv-x="1212" 
d="M567 655q137 0 223.5 82t86.5 228t-76 243t-216 97t-223 -86t-83 -240q0 -227 103 -275.5t185 -48.5zM899 694q-129 -188 -356 -188t-336 126.5t-109 340.5t133.5 347.5t354.5 133.5q266 0 377.5 -195t111.5 -479q0 -386 -109 -601.5t-393 -215.5q-199 0 -310 84
t-130 264h174q38 -196 244 -196q100 0 224 60.5t124 518.5z" />
    <glyph glyph-name="colon" unicode=":" horiz-adv-x="458" 
d="M127 240h205v-240h-205v240zM127 1059h205v-240h-205v240z" />
    <glyph glyph-name="semicolon" unicode=";" horiz-adv-x="458" 
d="M127 1059h205v-240h-205v240zM154 244h188l-106 -443h-144z" />
    <glyph glyph-name="less" unicode="&#x3c;" horiz-adv-x="1212" 
d="M158 764l919 426v-172l-712 -322l712 -321v-176l-919 426v139z" />
    <glyph glyph-name="equal" unicode="=" horiz-adv-x="1212" 
d="M164 1006h885v-160h-885v160zM164 549h885v-160h-885v160z" />
    <glyph glyph-name="greater" unicode="&#x3e;" horiz-adv-x="1212" 
d="M135 373l709 317l-709 326v174l920 -426v-139l-920 -426v174z" />
    <glyph glyph-name="question" unicode="?" horiz-adv-x="1026" 
d="M389 238h199v-238h-199v238zM401 451q0 157 92.5 246t129.5 128q131 122 131 273q0 106 -61.5 170.5t-188.5 64.5t-195.5 -59.5t-103.5 -190.5l-164 27q49 259 202 318t263 59q209 0 320.5 -105t111.5 -274q0 -123 -48 -203t-100 -130q-119 -116 -165.5 -176.5
t-46.5 -152.5v-26h-177v31z" />
    <glyph glyph-name="at" unicode="@" horiz-adv-x="1953" 
d="M998 803q-128 0 -218 -111.5t-90 -312.5q0 -131 55.5 -194.5t135.5 -63.5q140 0 208.5 86t96.5 235l8 54q35 221 -51.5 264t-144.5 43zM92 391q0 334 142.5 555t356 326.5t414.5 105.5q395 0 632 -201.5t237 -551.5q0 -298 -131.5 -465.5t-331.5 -167.5
q-96 0 -158.5 35.5t-76.5 124.5q-123 -172 -318 -172q-161 0 -252.5 108t-91.5 255q0 270 134 432.5t345 162.5q177 0 262 -154q6 40 25 131h162l-119 -665q-4 -20 -4 -31q0 -102 102 -102q129 0 214 127.5t85 365.5q0 298 -190.5 463.5t-505.5 165.5q-166 0 -307.5 -60.5
t-302 -232.5t-160.5 -547q0 -322 187.5 -511t516.5 -189q284 0 374.5 72.5t127.5 115.5h178q-197 -325 -690 -325q-382 0 -619 224.5t-237 604.5z" />
    <glyph glyph-name="A" unicode="A" horiz-adv-x="1380" 
d="M942 571l-258 678l-254 -678h512zM592 1462h199l567 -1462h-205l-154 408h-626l-154 -408h-196z" />
    <glyph glyph-name="B" unicode="B" horiz-adv-x="1294" 
d="M678 156q279 0 311.5 100t32.5 162q0 129 -76 197.5t-254 68.5h-346v-528h332zM672 844q166 0 237.5 60t71.5 178t-77 171.5t-263 53.5h-295v-463h326zM162 1462h485q421 0 469.5 -148.5t48.5 -237.5q0 -207 -207 -302q205 -80 228.5 -188t23.5 -180t-27.5 -149
t-124.5 -167t-374 -90h-522v1462z" />
    <glyph glyph-name="C" unicode="C" horiz-adv-x="1454" 
d="M111 730q0 360 182.5 564.5t470.5 204.5q376 0 464.5 -186.5t110.5 -292.5l-184 -31q-58 258 -178.5 302t-220.5 44t-185.5 -44t-143.5 -122.5t-89 -190.5t-31 -315.5t120 -369.5t339 -166q275 0 331 138t68 216h195q-25 -233 -176.5 -375.5t-425.5 -142.5
q-298 0 -472.5 203.5t-174.5 563.5z" />
    <glyph glyph-name="D" unicode="D" horiz-adv-x="1462" 
d="M1157 737q0 563 -483 563h-324v-1136h285q272 0 397 152.5t125 420.5zM162 1462h512q493 0 586.5 -269t93.5 -453q0 -362 -192.5 -551t-534.5 -189h-465v1462z" />
    <glyph glyph-name="E" unicode="E" horiz-adv-x="1216" 
d="M162 1462h946v-166h-758v-458h717v-168h-717v-504h797l-31 -166h-954v1462z" />
    <glyph glyph-name="F" unicode="F" horiz-adv-x="1155" 
d="M162 1462h907v-166h-719v-479h674v-170h-674v-647h-188v1462z" />
    <glyph glyph-name="G" unicode="G" horiz-adv-x="1466" 
d="M1171 588h-368v164h547v-586q-162 -150 -325 -176.5t-237 -26.5q-320 0 -498.5 201t-178.5 563t181 567t476 205q452 0 553 -418l-182 -30q-54 211 -168.5 248.5t-216.5 37.5t-187.5 -44t-142.5 -123.5t-87 -191.5t-30 -320t121.5 -369.5t358.5 -161.5t384 111v350z" />
    <glyph glyph-name="H" unicode="H" horiz-adv-x="1439" 
d="M162 1462h188v-618h740v618h188v-1462h-188v668h-740v-668h-188v1462z" />
    <glyph glyph-name="I" unicode="I" horiz-adv-x="512" 
d="M162 1462h188v-1462h-188v1462z" />
    <glyph glyph-name="J" unicode="J" horiz-adv-x="1222" 
d="M887 496v966h188v-981q0 -260 -133 -389t-363 -129q-479 0 -524 475h191q37 -311 327 -311q172 0 243 96t71 273z" />
    <glyph glyph-name="K" unicode="K" horiz-adv-x="1331" 
d="M162 1462h190v-700l686 700h215l-522 -547l576 -915h-217l-496 791l-242 -242v-549h-190v1462z" />
    <glyph glyph-name="L" unicode="L" horiz-adv-x="1150" 
d="M162 1462h188v-1294h758l-29 -168h-917v1462z" />
    <glyph glyph-name="M" unicode="M" horiz-adv-x="1732" 
d="M162 1462h233l471 -1237l480 1237h225v-1462h-174v1153l-459 -1153h-154l-450 1149v-1149h-172v1462z" />
    <glyph glyph-name="N" unicode="N" horiz-adv-x="1435" 
d="M162 1462h186l744 -1161v1161h182v-1462h-180l-750 1155v-1155h-182v1462z" />
    <glyph glyph-name="O" unicode="O" horiz-adv-x="1566" 
d="M1260 731q0 278 -124 441t-354 163t-352.5 -162.5t-122.5 -441.5q0 -280 121 -442t354 -162q232 0 355 163t123 441zM296 1294q185 205 490 205t487.5 -202t182.5 -565t-182 -566t-489 -203t-490.5 201t-183.5 563t185 567z" />
    <glyph glyph-name="P" unicode="P" horiz-adv-x="1282" 
d="M649 727q205 0 280 75t75 221t-78 213t-279 67h-299v-576h301zM162 1462h489q438 0 489.5 -173t51.5 -263q0 -459 -541 -459h-303v-567h-186v1462z" />
    <glyph glyph-name="Q" unicode="Q" horiz-adv-x="1566" 
d="M307 731q0 -280 121 -442t356 -162q135 0 236 59l-180 217l121 103l178 -215q121 162 121 440t-124 441t-354 163t-352.5 -162t-122.5 -442zM296 1294q185 205 490 205t487.5 -202t182.5 -574q0 -373 -199 -576l179 -210l-121 -105l-182 217q-155 -86 -327 -86t-295.5 50
t-261.5 201t-138 513t185 567z" />
    <glyph glyph-name="R" unicode="R" horiz-adv-x="1294" 
d="M659 768q267 0 297.5 106.5t30.5 168.5q0 129 -77 194.5t-275 65.5h-287v-535h311zM637 606h-289v-606h-186v1462h479q298 0 418.5 -117t120.5 -296q0 -139 -58.5 -237.5t-191.5 -154.5l307 -657h-211l-276 612q-41 -6 -113 -6z" />
    <glyph glyph-name="S" unicode="S" horiz-adv-x="1316" 
d="M655 1339q-352 0 -352 -239q0 -106 60 -161t208 -83l205 -37q227 -43 334 -142t107 -287t-139 -307.5t-398 -119.5q-407 0 -498.5 167t-101.5 286h188q25 -154 122 -222.5t283 -68.5t264.5 72.5t78.5 181.5t-56.5 172t-209.5 90l-185 33q-223 37 -337.5 130.5
t-114.5 288.5t148 300.5t390 105.5q384 0 455.5 -153.5t87.5 -225.5l-176 -35q-35 133 -114.5 193.5t-248.5 60.5z" />
    <glyph glyph-name="T" unicode="T" horiz-adv-x="1230" 
d="M520 1294h-483v168h1157v-168h-483v-1294h-191v1294z" />
    <glyph glyph-name="U" unicode="U" horiz-adv-x="1396" 
d="M1251 580q0 -617 -553 -617q-264 0 -408.5 147.5t-144.5 477.5v874h189v-882q0 -227 85 -340t283 -113t279.5 113.5t81.5 339.5v882h188v-882z" />
    <glyph glyph-name="V" unicode="V" horiz-adv-x="1363" 
d="M27 1462h213l444 -1218l453 1218h202l-561 -1462h-190z" />
    <glyph glyph-name="W" unicode="W" horiz-adv-x="1906" 
d="M25 1462h213l305 -1202l317 1196h203l315 -1196l303 1202h201l-405 -1462h-199l-326 1223l-319 -1223h-193z" />
    <glyph glyph-name="X" unicode="X" horiz-adv-x="1306" 
d="M539 772l-478 690h222l368 -555l375 555h203l-473 -698l528 -764h-219l-424 623l-412 -623h-206z" />
    <glyph glyph-name="Y" unicode="Y" horiz-adv-x="1255" 
d="M727 0h-190v621l-510 841h217l387 -676l397 676h199l-500 -841v-621z" />
    <glyph glyph-name="Z" unicode="Z" horiz-adv-x="1200" 
d="M78 1296v166h1048v-147l-837 -1147h862l-29 -168h-1059v145l840 1151h-825z" />
    <glyph glyph-name="bracketleft" unicode="[" horiz-adv-x="579" 
d="M154 1503h403v-153h-221v-1450h221v-154h-403v1757z" />
    <glyph glyph-name="backslash" unicode="\" horiz-adv-x="677" 
d="M197 1503l467 -1503h-183l-467 1503h183z" />
    <glyph glyph-name="bracketright" unicode="]" horiz-adv-x="579" 
d="M23 -100h219v1450h-219v153h401v-1757h-401v154z" />
    <glyph glyph-name="asciicircum" unicode="^" horiz-adv-x="1212" 
d="M530 1452h152l416 -834h-191l-305 629l-303 -629h-184z" />
    <glyph glyph-name="underscore" unicode="_" horiz-adv-x="1024" 
d="M0 -252h1024v-106h-1024v106z" />
    <glyph glyph-name="grave" unicode="`" horiz-adv-x="800" 
d="M174 1501h219l234 -291h-176z" />
    <glyph glyph-name="a" unicode="a" horiz-adv-x="1101" 
d="M252 284q0 -66 48 -114.5t159 -48.5q158 0 246 77.5t88 213.5v118l-170 -6q-301 -11 -336 -92.5t-35 -147.5zM70 308q0 94 46 161.5t150 120t344 61.5l183 6v41q0 135 -57.5 194.5t-185.5 59.5t-187.5 -42t-77.5 -115l-162 18q29 145 137.5 212t294.5 67q326 0 370 -155
t44 -249v-688h-172v145q-138 -170 -365 -170q-256 0 -309 119.5t-53 213.5z" />
    <glyph glyph-name="b" unicode="b" horiz-adv-x="1222" 
d="M313 500q0 -194 83.5 -289.5t228.5 -95.5q217 0 262 152.5t45 268.5q0 215 -84.5 311.5t-217.5 96.5t-225 -95t-92 -278v-71zM313 0h-176v1462h178v-551q139 181 357 181t333 -151t115 -409t-127 -411.5t-340 -153.5q-212 0 -340 168v-135z" />
    <glyph glyph-name="c" unicode="c" horiz-adv-x="1144" 
d="M610 1092q190 0 295 -93.5t133 -257.5l-178 -32q-46 235 -256 235q-161 0 -237 -114.5t-76 -353t112.5 -300t198.5 -61.5q129 0 191.5 65.5t80.5 177.5h181q-27 -182 -139.5 -286.5t-334.5 -104.5t-350.5 148.5t-128.5 408.5q0 259 137 413.5t371 154.5z" />
    <glyph glyph-name="d" unicode="d" horiz-adv-x="1220" 
d="M909 561q0 127 -27.5 197t-81.5 114t-101 58t-107 14q-135 0 -219 -100.5t-84 -317.5t86 -313t205 -96t204 63q125 100 125 309v72zM907 152q-139 -185 -358.5 -185t-333 155t-113.5 409t125.5 407.5t336.5 153.5t339 -162v532h178v-1462h-174v152z" />
    <glyph glyph-name="e" unicode="e" horiz-adv-x="1167" 
d="M891 618q0 241 -106.5 288.5t-184.5 47.5q-141 0 -220 -86t-93 -250h604zM584 -33q-224 0 -353 146.5t-129 412.5t138.5 416t367.5 150t345 -141t116 -376v-90h-786q0 -163 84.5 -268.5t225.5 -105.5q142 0 203.5 50t84.5 136h172q-27 -154 -136 -242t-333 -88z" />
    <glyph glyph-name="f" unicode="f" horiz-adv-x="684" 
d="M551 1331q-70 0 -121 -38t-51 -138v-96h268v-141h-268v-918h-178v918h-166v141h166v92q0 163 91 245.5t230 82.5q96 0 180 -25l-28 -139q-53 16 -123 16z" />
    <glyph glyph-name="g" unicode="g" horiz-adv-x="1218" 
d="M907 569q0 195 -86 285t-223 90q-218 0 -263.5 -142.5t-45.5 -247.5q0 -197 85 -290.5t220 -93.5t224 93t89 272v34zM905 1059h176v-887q0 -298 -99 -445t-374 -147q-209 0 -327.5 75t-139.5 247h176q23 -96 88 -137t217 -41t216.5 93t64.5 271v113q-128 -181 -351 -181
t-337.5 152t-114.5 388t128.5 384t340.5 148t336 -168v135z" />
    <glyph glyph-name="h" unicode="h" horiz-adv-x="1167" 
d="M684 1092q354 0 354 -387v-705h-180v670q0 147 -52 207.5t-174 60.5t-212 -86q-51 -45 -78 -95t-27 -130v-627h-178v1462h178v-561q149 191 369 191z" />
    <glyph glyph-name="i" unicode="i" horiz-adv-x="460" 
d="M135 1462h191v-207h-191v207zM141 1059h178v-1059h-178v1059z" />
    <glyph glyph-name="j" unicode="j" horiz-adv-x="460" 
d="M1 -227q79 0 109.5 41t30.5 127v1118h178v-1071q0 -178 -62 -273.5t-224 -95.5q-102 0 -199 33l31 141q57 -20 136 -20zM135 1462h191v-207h-191v207z" />
    <glyph glyph-name="k" unicode="k" horiz-adv-x="1071" 
d="M137 1462h176v-852l496 449h215l-379 -354l420 -705h-203l-350 600l-199 -178v-422h-176v1462z" />
    <glyph glyph-name="l" unicode="l" horiz-adv-x="460" 
d="M141 1462h178v-1462h-178v1462z" />
    <glyph glyph-name="m" unicode="m" horiz-adv-x="1763" 
d="M1307 1092q325 0 325 -359v-733h-178v692q0 199 -70.5 222.5t-116.5 23.5q-110 0 -201 -77t-91 -193v-668h-178v690q0 139 -48.5 193.5t-145.5 54.5t-189 -86q-35 -33 -67 -84t-32 -137v-631h-178v1059h176v-162q143 195 334 195q226 0 299 -199q146 199 361 199z" />
    <glyph glyph-name="n" unicode="n" horiz-adv-x="1167" 
d="M684 1092q354 0 354 -387v-705h-178v670q0 147 -53 207.5t-175 60.5t-212 -86q-51 -45 -78 -95t-27 -130v-627h-178v1059h176v-162q146 195 371 195z" />
    <glyph glyph-name="o" unicode="o" horiz-adv-x="1230" 
d="M614 115q165 0 245.5 111.5t80.5 305.5q0 293 -120 352.5t-206 59.5t-146 -30.5t-100 -85t-58.5 -130t-18.5 -168t18.5 -168t79 -161.5t225.5 -86zM243 937.5q141 154.5 376 154.5t372 -150t137 -409t-138 -412.5t-379 -153.5q-237 0 -373 148.5t-136 408t141 414z" />
    <glyph glyph-name="p" unicode="p" horiz-adv-x="1222" 
d="M313 500q0 -194 83.5 -289.5t228.5 -95.5q217 0 262 152.5t45 268.5q0 215 -84.5 311.5t-217.5 96.5t-225 -95t-92 -278v-71zM315 -397h-178v1456h176v-152q136 185 356 185t335.5 -151t115.5 -409t-127 -411.5t-340 -153.5t-338 164v-528z" />
    <glyph glyph-name="q" unicode="q" horiz-adv-x="1222" 
d="M909 561q0 127 -27.5 197t-81.5 114t-101 58t-107 14q-135 0 -219 -100.5t-84 -317.5t86 -313t205 -96t204 63q125 104 125 309v72zM905 150q-140 -183 -358 -183t-331.5 155t-113.5 409t125.5 407.5t339.5 153.5q215 0 340 -168v135h176v-1456h-178v547z" />
    <glyph glyph-name="r" unicode="r" horiz-adv-x="749" 
d="M601 913q-107 0 -189 -75q-97 -84 -97 -209v-629h-178v1059h176v-164q122 182 310 182q55 0 94 -8l-23 -166q-51 10 -93 10z" />
    <glyph glyph-name="s" unicode="s" horiz-adv-x="1069" 
d="M552 111q132 0 188.5 46t56.5 119t-39 114t-150 61l-135 20q-186 29 -276.5 98.5t-90.5 212t119 226.5t301 84q306 0 363 -115t72 -174l-162 -27q-31 95 -88 134.5t-155 39.5q-162 0 -221 -45t-59 -113t42.5 -105t158.5 -56l154 -25q186 -31 267 -106.5t81 -217.5
t-110 -228.5t-316 -86.5q-319 0 -393 124t-80 218h172q18 -111 93 -154.5t207 -43.5z" />
    <glyph glyph-name="t" unicode="t" horiz-adv-x="710" 
d="M377 297q0 -172 145 -172q76 0 137 22l31 -137q-97 -33 -195 -33q-172 0 -234 92.5t-62 274.5v574h-164v141h164v289h178v-289h280v-141h-280v-621z" />
    <glyph glyph-name="u" unicode="u" horiz-adv-x="1148" 
d="M131 356v703h178v-668q0 -147 48.5 -208.5t162.5 -61.5t209 86q51 45 78 95t27 130v627h178v-1059h-176v164q-151 -197 -363 -197q-180 0 -261 97.5t-81 291.5z" />
    <glyph glyph-name="v" unicode="v" horiz-adv-x="1067" 
d="M14 1059h207l316 -860l321 860h197l-426 -1059h-191z" />
    <glyph glyph-name="w" unicode="w" horiz-adv-x="1501" 
d="M16 1059h195l213 -844l244 838h180l237 -838l211 844h189l-309 -1059h-189l-237 844l-240 -844h-186z" />
    <glyph glyph-name="x" unicode="x" horiz-adv-x="1030" 
d="M414 557l-355 502h209l252 -375l262 375h191l-348 -500l385 -559h-207l-291 428l-293 -428h-196z" />
    <glyph glyph-name="y" unicode="y" horiz-adv-x="1071" 
d="M291 -397q-111 0 -193 28l35 144q57 -21 119 -21t97.5 34t70.5 126l43 113l-449 1032h207l334 -832l305 832h197l-463 -1159q-62 -155 -127 -226t-176 -71z" />
    <glyph glyph-name="z" unicode="z" horiz-adv-x="956" 
d="M70 915v144h825v-133l-616 -783h647l-23 -143h-846v133l617 782h-604z" />
    <glyph glyph-name="braceleft" unicode="{" horiz-adv-x="589" 
d="M375 438v-436q0 -106 108 -106h97v-150h-121q-119 0 -187.5 57.5t-68.5 196.5v397q0 72 -31 112t-106 40h-11v151h11q76 0 106.5 40t30.5 112v397q0 139 68.5 196.5t187.5 57.5h121v-149h-97q-109 0 -108 -107v-436q0 -156 -119 -186q119 -30 119 -187z" />
    <glyph glyph-name="bar" unicode="|" horiz-adv-x="466" 
d="M145 1503h177v-1757h-177v1757z" />
    <glyph glyph-name="braceright" unicode="}" horiz-adv-x="589" 
d="M215 811v436q0 106 -109 107h-96v149h121q119 0 187.5 -57t68.5 -197v-397q0 -72 31 -112t106 -40h11v-151h-11q-76 0 -106.5 -40t-30.5 -112v-397q0 -139 -68.5 -196.5t-187.5 -57.5h-121v150h96q109 0 109 106v436q0 155 119 187q-119 30 -119 186z" />
    <glyph glyph-name="asciitilde" unicode="~" horiz-adv-x="1212" 
d="M88 512q0 194 76.5 276t216.5 82q72 0 131 -33.5t111.5 -73.5t100.5 -73t110 -33q130 0 131 193h155q0 -285 -112.5 -323t-180.5 -38t-127 34t-111 75t-101.5 75t-111.5 34q-128 0 -128 -195h-160z" />
    <glyph glyph-name="uni00A0" unicode="&#xa0;" horiz-adv-x="456" 
 />
    <glyph glyph-name="exclamdown" unicode="&#xa1;" horiz-adv-x="471" 
d="M137 1059h199v-238h-199v238zM152 639h170l6 -1036h-183z" />
    <glyph glyph-name="cent" unicode="&#xa2;" horiz-adv-x="1212" 
d="M326 714q0 -166 61.5 -276t185.5 -129v807q-247 -45 -247 -402zM709 -18h-136v178q-205 16 -318.5 163t-113.5 383t116.5 387t315.5 173v182h136v-178q160 -10 256 -101.5t122 -240.5l-176 -33q-36 196 -202 225v-811q176 23 213 232h180q-25 -166 -123 -266.5
t-270 -114.5v-178z" />
    <glyph glyph-name="sterling" unicode="&#xa3;" horiz-adv-x="1212" 
d="M469 511q0 -222 -100 -351h766l-27 -160h-930l2 145q121 131 121 363q0 4 -12 127h-152v147h133q-22 135 -22 238q0 206 122.5 320t311.5 114q291 0 347 -131t71 -199l-158 -30q-34 114 -72.5 149t-79 47.5t-102.5 12.5q-141 0 -204.5 -81t-63.5 -186t22 -254h461v-147
h-440q6 -49 6 -124z" />
    <glyph glyph-name="currency" unicode="&#xa4;" horiz-adv-x="1212" 
d="M638.5 365q114.5 0 183.5 92t69 252q0 247 -105.5 297.5t-217.5 50.5t-183.5 -95t-71.5 -253q0 -244 105.5 -294t220 -50zM150 704q0 180 90 316l-119 127l110 108l123 -133q104 76 253 76t249 -76l125 133l111 -108l-123 -129q84 -121 84 -305.5t-84 -311.5l125 -129
l-113 -106l-125 129q-109 -72 -254 -72t-250 68l-121 -125l-112 106l119 125q-88 127 -88 307z" />
    <glyph glyph-name="yen" unicode="&#xa5;" horiz-adv-x="1212" 
d="M150 459h370v151l-26 45h-344v138h260l-363 622h197l366 -661l373 661h182l-358 -622h266v-138h-352l-23 -45v-151h375v-137h-375v-322h-178v322h-370v137z" />
    <glyph glyph-name="brokenbar" unicode="&#xa6;" horiz-adv-x="466" 
d="M145 461h177v-715h-177v715zM145 1503h177v-704h-177v704z" />
    <glyph glyph-name="section" unicode="&#xa7;" horiz-adv-x="1079" 
d="M637 418q62 0 128 53.5t66 132.5t-39.5 128t-160.5 83l-84 23q-43 12 -80 12q-94 0 -150.5 -54.5t-56.5 -134.5t40.5 -130t160.5 -85l59 -14q55 -14 117 -14zM303 920q-199 84 -199 252q0 162 121 244.5t327 82.5q366 0 435 -293l-162 -37q-31 95 -92 139t-200 44
q-140 0 -197 -48.5t-57 -114.5t39 -108.5t153 -72.5l191 -50q174 -43 253.5 -120.5t79.5 -204.5q0 -203 -204 -285q194 -86 194 -274q0 -166 -112.5 -244t-311.5 -78q-321 0 -395 130t-82 231h174q20 -121 91 -167t177 -46q174 0 230.5 44.5t56.5 117.5t-39 119.5t-153 76.5
l-183 47q-182 45 -261 125t-79 217q0 90 52.5 162t152.5 111z" />
    <glyph glyph-name="dieresis" unicode="&#xa8;" horiz-adv-x="800" 
d="M487 1462h183v-202h-183v202zM131 1462h180v-202h-180v202z" />
    <glyph glyph-name="copyright" unicode="&#xa9;" horiz-adv-x="1585" 
d="M1135 612q-43 -290 -355 -290q-168 0 -262 109.5t-94 296.5t101.5 299t259.5 112q157 0 236 -70t99 -188l-149 -27q-33 154 -174 154q-109 0 -160 -76t-51 -235t75.5 -201.5t133.5 -42.5q163 0 186 159h154zM1184.5 1159q-152.5 164 -395.5 164q-242 0 -393.5 -163
t-151.5 -430t151.5 -430t394.5 -163q242 0 394.5 164t152.5 429t-152.5 429zM293 1259.5q201 202.5 506 202.5q304 0 497 -199t193 -528t-199.5 -532t-501.5 -203q-150 0 -279.5 52t-273 201t-143.5 476.5t201 530z" />
    <glyph glyph-name="ordfeminine" unicode="&#xaa;" horiz-adv-x="870" 
d="M231 922q0 -121 148 -121q91 0 162 45t71 155v82l-116 -4q-154 -8 -209.5 -42.5t-55.5 -114.5zM374 682q-139 0 -215.5 59.5t-76.5 176.5q0 144 106 200t299 66l125 6v18q0 90 -39 134t-133 44t-133 -31.5t-53 -82.5l-129 16q43 211 321 211q243 0 277.5 -113.5
t34.5 -183.5v-502h-142v95q-103 -113 -242 -113z" />
    <glyph glyph-name="guillemotleft" unicode="&#xab;" horiz-adv-x="1017" 
d="M88 526l281 455h180l-258 -453l258 -460h-184zM498 526l280 455h180l-258 -453l258 -460h-184z" />
    <glyph glyph-name="logicalnot" unicode="&#xac;" horiz-adv-x="1212" 
d="M135 885h909v-547h-161v389h-748v158z" />
    <glyph glyph-name="uni00AD" unicode="&#xad;" horiz-adv-x="800" 
d="M98 688h602v-178h-602v178z" />
    <glyph glyph-name="registered" unicode="&#xae;" horiz-adv-x="989" 
d="M491.5 711q141.5 0 230.5 90t89 256t-89 256t-230.5 90t-228.5 -90t-87 -256t87 -256t228.5 -90zM185.5 733.5q-117.5 119.5 -117.5 322.5t122 323t311 120t304 -120.5t115 -321.5t-123 -322t-309 -121q-185 0 -302.5 119.5zM500 1092q53 0 63 16t10 36t-14 36t-72 16
h-61v-104h74zM487 1276q181 0 181 -129q0 -45 -15.5 -72.5t-54.5 -44.5l90 -176h-106l-78 156h-78v-156h-96v422h157z" />
    <glyph glyph-name="macron" unicode="&#xaf;" horiz-adv-x="800" 
d="M133 1419h535v-145h-535v145z" />
    <glyph glyph-name="degree" unicode="&#xb0;" horiz-adv-x="686" 
d="M343 1018q67 0 109 42t42 114t-42 115.5t-109 43.5t-108.5 -43.5t-41.5 -115.5t41.5 -114t108.5 -42zM55 1175.5q0 61.5 21.5 112.5t60.5 90t92.5 60.5t115 21.5t114.5 -21.5t91 -60.5t59.5 -90t21.5 -112.5t-21.5 -113.5t-59.5 -91t-91 -60.5t-114.5 -21.5t-115 21.5
t-92.5 60.5t-60.5 91t-21.5 113.5z" />
    <glyph glyph-name="plusminus" unicode="&#xb1;" horiz-adv-x="1212" 
d="M164 164h885v-162h-885v162zM524 618h-393v158h393v422h164v-422h393v-158h-393v-421h-164v421z" />
    <glyph glyph-name="twosuperior" unicode="&#xb2;" 
d="M551 1194q0 51 -32.5 86t-98.5 35t-106 -33t-60 -108l-145 22q64 252 317 252q137 0 211 -70t74 -174.5t-54 -190t-160 -168.5t-143 -112h367l-23 -133h-573v119q33 29 88 72t117 96t102.5 88t67 67.5t39 66.5t12.5 85z" />
    <glyph glyph-name="threesuperior" unicode="&#xb3;" 
d="M729 834q0 -117 -72.5 -192t-234.5 -75t-235 84.5t-78 192.5h139q10 -72 48 -112t124 -40q158 0 158 139q0 72 -41 99.5t-107 27.5h-96v127h98q57 0 94 30t37 93q0 117 -143 117q-74 0 -112 -32.5t-56 -102.5l-139 22q18 96 92 166t218 70t216 -63.5t72 -170.5t-105 -180
q123 -56 123 -200z" />
    <glyph glyph-name="acute" unicode="&#xb4;" horiz-adv-x="800" 
d="M408 1501h219l-277 -291h-176z" />
    <glyph glyph-name="mu" unicode="&#xb5;" horiz-adv-x="1148" 
d="M309 -397h-178v1456h178v-676q0 -147 54.5 -204.5t160.5 -57.5t208 88t102 205v645h178v-1059h-176v160q-140 -191 -332 -191q-132 0 -195 70v-436z" />
    <glyph glyph-name="paragraph" unicode="&#xb6;" horiz-adv-x="1247" 
d="M174.5 1344.5q131.5 117.5 439.5 117.5h488v-1747h-178v1596h-244v-1596h-178v891q-237 7 -348 126t-111 307t131.5 305.5z" />
    <glyph glyph-name="periodcentered" unicode="&#xb7;" horiz-adv-x="458" 
d="M127 885h205v-240h-205v240z" />
    <glyph glyph-name="cedilla" unicode="&#xb8;" horiz-adv-x="800" 
d="M332 -311q114 0 114 63q0 35 -29.5 50.5t-111.5 15.5h-43l70 192h117l-39 -108q184 -20 184 -162q0 -92 -69.5 -129t-163.5 -37t-152 10v113q78 -8 123 -8z" />
    <glyph glyph-name="onesuperior" unicode="&#xb9;" 
d="M551 1417v-817h-164v655l-188 -98l-62 117l254 143h160z" />
    <glyph glyph-name="ordmasculine" unicode="&#xba;" horiz-adv-x="876" 
d="M438 801q121 0 175.5 79.5t54.5 205.5t-54.5 207t-175.5 81q-171 0 -200 -112.5t-29 -176.5q0 -127 54 -205.5t175 -78.5zM159.5 784.5q-102.5 110.5 -102.5 299.5t105.5 302t278.5 113t275.5 -109.5t102.5 -301.5t-104 -303t-279 -111q-174 0 -276.5 110.5z" />
    <glyph glyph-name="guillemotright" unicode="&#xbb;" horiz-adv-x="1017" 
d="M317 520l-258 461h185l276 -459l-280 -454h-181zM727 520l-258 461h184l277 -459l-281 -454h-180z" />
    <glyph glyph-name="onequarter" unicode="&#xbc;" horiz-adv-x="1865" 
d="M623 0h-174l718 1415h174zM479 1417v-817h-164v655l-188 -98l-61 117l253 143h160zM1509 313v310l-239 -310h239zM1657 819v-506h102l-20 -120h-82v-191h-148v191h-401v100l408 526h141z" />
    <glyph glyph-name="onehalf" unicode="&#xbd;" horiz-adv-x="1865" 
d="M569 0h-174l719 1415h174zM479 1417v-817h-164v655l-188 -98l-61 117l253 143h160zM1124 598q64 252 314 252q141 0 218 -73q70 -66 70 -175q0 -51 -11 -94q-29 -115 -214 -268q-56 -48 -131 -105h367l-23 -133h-573v119q33 29 88 72t154 127t141 134q41 50 42 121
q1 72 -32 107q-32 35 -98 35t-106 -33t-60 -109z" />
    <glyph glyph-name="threequarters" unicode="&#xbe;" horiz-adv-x="1865" 
d="M717 0h-174l719 1415h174zM1509 313v310l-239 -310h239zM1657 819v-506h102l-20 -120h-82v-191h-148v191h-401v100l408 526h141zM729 834q0 -117 -73 -192t-235 -75t-244 96q-63 74 -68 181h139q10 -72 48 -112t124 -40q158 0 158 139q0 72 -41 100t-107 27h-96v127h98
q57 0 94 30t37 93q0 117 -143 117q-74 0 -112 -33t-56 -102l-139 22q18 96 91 165t218 70t217 -63t72 -170q0 -107 -105 -180q123 -56 123 -200z" />
    <glyph glyph-name="questiondown" unicode="&#xbf;" horiz-adv-x="1013" 
d="M430 1059h199v-238h-199v238zM512 -422q-208 0 -320 103.5t-112 268.5t73 250.5t135 144t107 118t45 151.5v27h176v-33q0 -157 -121 -275t-176 -181t-55 -176q0 -112 60.5 -178t188.5 -66t196.5 60.5t103.5 189.5l164 -27q-49 -258 -202 -317.5t-263 -59.5z" />
    <glyph glyph-name="Agrave" unicode="&#xc0;" horiz-adv-x="1380" 
d="M942 571l-258 678l-254 -678h512zM592 1462h199l567 -1462h-205l-154 408h-626l-154 -408h-196zM604 1860l240 -277h-178l-283 277h221z" />
    <glyph glyph-name="Aacute" unicode="&#xc1;" horiz-adv-x="1380" 
d="M942 571l-258 678l-254 -678h512zM592 1462h199l567 -1462h-205l-154 408h-626l-154 -408h-196zM776 1860h221l-282 -277h-178z" />
    <glyph glyph-name="Acircumflex" unicode="&#xc2;" horiz-adv-x="1380" 
d="M942 571l-258 678l-254 -678h512zM592 1462h199l567 -1462h-205l-154 408h-626l-154 -408h-196zM600 1860h178l236 -277h-168l-158 162l-158 -162h-168z" />
    <glyph glyph-name="Atilde" unicode="&#xc3;" horiz-adv-x="1380" 
d="M942 571l-258 678l-254 -678h512zM592 1462h199l567 -1462h-205l-154 408h-626l-154 -408h-196zM322 1595q0 119 57 181t144 61q87 0 173 -54q33 -19 64 -37q32 -18 76 -17q84 0 86 104h135q1 -121 -57 -181t-158 -61q-51 -1 -89 17t-71 38t-64 36q-32 18 -76 18
q-86 1 -85 -105h-135z" />
    <glyph glyph-name="Adieresis" unicode="&#xc4;" horiz-adv-x="1380" 
d="M942 571l-258 678l-254 -678h512zM592 1462h199l567 -1462h-205l-154 408h-626l-154 -408h-196zM778 1827h189v-209h-189v209zM412 1827h186v-209h-186v209z" />
    <glyph glyph-name="Aring" unicode="&#xc5;" horiz-adv-x="1380" 
d="M688 1704q-100 0 -100 -108t100 -107q100 -1 100 107t-100 108zM942 571l-258 678l-254 -678h512zM475 1583q0 116 63.5 169.5t149.5 53.5q145 0 180 -79.5t35 -133.5q0 -118 -94 -180l549 -1413h-205l-154 408h-626l-154 -408h-196l548 1411q-96 56 -96 172z" />
    <glyph glyph-name="AE" unicode="&#xc6;" horiz-adv-x="2127" 
d="M1128 647v649h-135l-387 -649h522zM2019 1462v-166h-710v-458h669v-168h-669v-504h749l-30 -166h-900v485h-616l-287 -485h-215l891 1462h1118z" />
    <glyph glyph-name="Ccedilla" unicode="&#xc7;" horiz-adv-x="1454" 
d="M694 -336q117 0 117 53.5t-29.5 69.5t-115.5 16h-43l59 164q-266 24 -418.5 225t-152.5 550t182.5 553t470.5 204q376 0 464.5 -186.5t110.5 -292.5l-184 -31q-58 258 -178.5 302t-220.5 44t-185.5 -44t-143.5 -122.5t-89 -190.5t-31 -315.5t120 -369.5t339 -166
q275 0 331 138t68 216h195q-38 -347 -233 -428.5t-326 -87.5l-29 -76q195 -21 195 -168q0 -96 -73 -134t-165 -38t-164 11v114q68 -10 129 -10z" />
    <glyph glyph-name="Egrave" unicode="&#xc8;" horiz-adv-x="1216" 
d="M162 1462h946v-166h-758v-458h717v-168h-717v-504h797l-31 -166h-954v1462zM578 1860l239 -277h-178l-283 277h222z" />
    <glyph glyph-name="Eacute" unicode="&#xc9;" horiz-adv-x="1216" 
d="M162 1462h946v-166h-758v-458h717v-168h-717v-504h797l-31 -166h-954v1462zM715 1860h221l-283 -277h-178z" />
    <glyph glyph-name="Ecircumflex" unicode="&#xca;" horiz-adv-x="1216" 
d="M162 1462h946v-166h-758v-458h717v-168h-717v-504h797l-31 -166h-954v1462zM551 1860h178l236 -277h-168l-158 162l-158 -162h-168z" />
    <glyph glyph-name="Edieresis" unicode="&#xcb;" horiz-adv-x="1216" 
d="M162 1462h946v-166h-758v-458h717v-168h-717v-504h797l-31 -166h-954v1462zM729 1827h189v-209h-189v209zM362 1827h187v-209h-187v209z" />
    <glyph glyph-name="Igrave" unicode="&#xcc;" horiz-adv-x="512" 
d="M162 1462h188v-1462h-188v1462zM158 1860l239 -277h-178l-282 277h221z" />
    <glyph glyph-name="Iacute" unicode="&#xcd;" horiz-adv-x="512" 
d="M162 1462h188v-1462h-188v1462zM358 1860h222l-283 -277h-178z" />
    <glyph glyph-name="Icircumflex" unicode="&#xce;" horiz-adv-x="512" 
d="M162 1462h188v-1462h-188v1462zM168 1860h178l236 -277h-168l-158 162l-158 -162h-168z" />
    <glyph glyph-name="Idieresis" unicode="&#xcf;" horiz-adv-x="512" 
d="M162 1462h188v-1462h-188v1462zM346 1827h189v-209h-189v209zM-20 1827h186v-209h-186v209z" />
    <glyph glyph-name="Eth" unicode="&#xd0;" horiz-adv-x="1488" 
d="M1184 737q0 563 -484 563h-323v-464h373v-160h-373v-512h285q272 0 397 152.5t125 420.5zM188 676h-168v160h168v626h512q493 0 586.5 -269t93.5 -453q0 -363 -192 -551.5t-535 -188.5h-465v676z" />
    <glyph glyph-name="Ntilde" unicode="&#xd1;" horiz-adv-x="1435" 
d="M162 1462h186l744 -1161v1161h182v-1462h-180l-750 1155v-1155h-182v1462zM356 1595q0 119 58 181t142 61q85 0 175 -54q33 -19 64 -37t75 -17q86 0 86 104h136q0 -121 -58 -181t-143 -60q-86 0 -174 54q-33 19 -64 36q-31 18 -75 18q-86 1 -86 -105h-136z" />
    <glyph glyph-name="Ograve" unicode="&#xd2;" horiz-adv-x="1566" 
d="M1260 731q0 277 -123 441q-123 163 -353 163t-354 -163q-123 -163 -123 -443t121 -441t353 -161t356 164q123 163 123 440zM111 727q0 363 186 567q186 205 490 205t487 -201q182 -201 182 -564t-182 -567t-489 -204t-491 201q-183 200 -183 563zM717 1860l239 -277h-178
l-282 277h221z" />
    <glyph glyph-name="Oacute" unicode="&#xd3;" horiz-adv-x="1566" 
d="M1260 731q0 277 -123 441q-123 163 -353 163t-354 -163q-123 -163 -123 -443t121 -441t353 -161t356 164q123 163 123 440zM111 727q0 363 186 567q186 205 490 205t487 -201q182 -201 182 -564t-182 -567t-489 -204t-491 201q-183 200 -183 563zM856 1860h221l-282 -277
h-179z" />
    <glyph glyph-name="Ocircumflex" unicode="&#xd4;" horiz-adv-x="1566" 
d="M1260 731q0 277 -123 441q-123 163 -353 163t-354 -163q-123 -163 -123 -443t121 -441t353 -161t356 164q123 163 123 440zM111 727q0 363 186 567q186 205 490 205t487 -201q182 -201 182 -564t-182 -567t-489 -204t-491 201q-183 200 -183 563zM694 1860h178l236 -277
h-168l-158 162l-157 -162h-168z" />
    <glyph glyph-name="Otilde" unicode="&#xd5;" horiz-adv-x="1566" 
d="M1260 731q0 277 -123 441q-123 163 -353 163t-354 -163q-123 -163 -123 -443t121 -441t353 -161t356 164q123 163 123 440zM111 727q0 363 186 567q186 205 490 205t487 -201q182 -201 182 -564t-182 -567t-489 -204t-491 201q-183 200 -183 563zM416 1595q0 119 57 181
t143 61q86 0 175 -54q33 -19 63 -37t76 -17q84 0 86 104h135q0 -121 -57 -181t-158 -61q-51 -1 -89 17t-71 38q-34 20 -64 36q-30 18 -75 18q-86 1 -86 -105h-135z" />
    <glyph glyph-name="Odieresis" unicode="&#xd6;" horiz-adv-x="1566" 
d="M1260 731q0 277 -123 441q-123 163 -353 163t-354 -163q-123 -163 -123 -443t121 -441t353 -161t356 164q123 163 123 440zM111 727q0 363 186 567q186 205 490 205t487 -201q182 -201 182 -564t-182 -567t-489 -204t-491 201q-183 200 -183 563zM872 1827h189v-209h-189
v209zM506 1827h186v-209h-186v209z" />
    <glyph glyph-name="multiply" unicode="&#xd7;" horiz-adv-x="1212" 
d="M180 375l318 315l-332 334l108 109l332 -328l332 328l109 -109l-332 -334l317 -315l-108 -113l-318 318l-317 -318z" />
    <glyph glyph-name="Oslash" unicode="&#xd8;" horiz-adv-x="1566" 
d="M307 737q0 -274 109 -432l628 952q-112 78 -245 78q-247 0 -369.5 -162t-122.5 -436zM762 127q252 0 375 163t123 434t-113 431l-629 -952q106 -76 244 -76zM309 147q-198 206 -198 574t185 573t488 205q205 0 359 -94l108 166l117 -82l-113 -172q201 -205 201 -577
q0 -371 -182 -574t-490 -203q-205 0 -362 94l-111 -166l-116 80z" />
    <glyph glyph-name="Ugrave" unicode="&#xd9;" horiz-adv-x="1396" 
d="M1251 580q0 -617 -553 -617q-264 -1 -408 147t-145 478v874h189v-882q0 -227 85 -340t283 -113t279 114q82 114 82 339v882h188v-882zM621 1860l239 -277h-178l-283 277h222z" />
    <glyph glyph-name="Uacute" unicode="&#xda;" horiz-adv-x="1396" 
d="M1251 580q0 -617 -553 -617q-264 -1 -408 147t-145 478v874h189v-882q0 -227 85 -340t283 -113t279 114q82 114 82 339v882h188v-882zM786 1860h222l-283 -277h-178z" />
    <glyph glyph-name="Ucircumflex" unicode="&#xdb;" horiz-adv-x="1396" 
d="M1251 580q0 -617 -553 -617q-264 -1 -408 147t-145 478v874h189v-882q0 -227 85 -340t283 -113t279 114q82 114 82 339v882h188v-882zM608 1860h178l236 -277h-168l-158 162l-157 -162h-168z" />
    <glyph glyph-name="Udieresis" unicode="&#xdc;" horiz-adv-x="1396" 
d="M1251 580q0 -617 -553 -617q-264 -1 -408 147t-145 478v874h189v-882q0 -227 85 -340t283 -113t279 114q82 114 82 339v882h188v-882zM786 1827h189v-209h-189v209zM420 1827h186v-209h-186v209z" />
    <glyph glyph-name="Yacute" unicode="&#xdd;" horiz-adv-x="1255" 
d="M727 0h-190v621l-510 841h217l387 -676l397 676h199l-500 -841v-621zM717 1860h221l-283 -277h-178z" />
    <glyph glyph-name="Thorn" unicode="&#xde;" horiz-adv-x="1282" 
d="M649 455q292 0 323.5 113.5t31.5 182.5q0 144 -77.5 211.5t-279.5 67.5h-299v-575h301zM162 1462h186v-272h303q303 0 422 -119t119 -323q0 -453 -541 -453h-303v-295h-186v1462z" />
    <glyph glyph-name="germandbls" unicode="&#xdf;" horiz-adv-x="1179" 
d="M573 1337q-260 0 -260 -284v-1053h-174v1057q0 199 114.5 310.5t318.5 111.5t308.5 -94.5t104.5 -258.5q0 -228 -190 -319q214 -48 261.5 -180.5t47.5 -219.5q0 -191 -107.5 -310.5t-334.5 -119.5q-120 0 -222 35l31 140q84 -29 171 -29q161 0 222.5 76t61.5 215
q0 291 -351 291h-100v145h84q250 0 250 262q0 159 -86 192t-150 33z" />
    <glyph glyph-name="agrave" unicode="&#xe0;" horiz-adv-x="1101" 
d="M252 284q0 -66 48 -115q48 -48 159 -48q158 0 246 78t88 213v118l-170 -6q-211 -8 -295 -64q-42 -28 -58 -69q-18 -41 -18 -107zM793 698q1 134 -57 194t-186 60t-188 -42t-77 -115l-162 18q29 145 137 212q109 67 295 67q327 0 392 -234q22 -76 22 -170v-688h-172v145
q-137 -168 -365 -170q-255 0 -336 179q-26 60 -26 154t46 162q85 124 296 161q96 16 198 20l183 6v41zM279 1501h219l233 -291h-176z" />
    <glyph glyph-name="aacute" unicode="&#xe1;" horiz-adv-x="1101" 
d="M252 284q0 -66 48 -115q48 -48 159 -48q158 0 246 78t88 213v118l-170 -6q-211 -8 -295 -64q-42 -28 -58 -69q-18 -41 -18 -107zM793 698q1 134 -57 194t-186 60t-188 -42t-77 -115l-162 18q29 145 137 212q109 67 295 67q327 0 392 -234q22 -76 22 -170v-688h-172v145
q-137 -168 -365 -170q-255 0 -336 179q-26 60 -26 154t46 162q85 124 296 161q96 16 198 20l183 6v41zM635 1501h219l-276 -291h-177z" />
    <glyph glyph-name="acircumflex" unicode="&#xe2;" horiz-adv-x="1101" 
d="M252 284q0 -66 48 -115q48 -48 159 -48q158 0 246 78t88 213v118l-170 -6q-211 -8 -295 -64q-42 -28 -58 -69q-18 -41 -18 -107zM793 698q1 134 -57 194t-186 60t-188 -42t-77 -115l-162 18q29 145 137 212q109 67 295 67q327 0 392 -234q22 -76 22 -170v-688h-172v145
q-137 -168 -365 -170q-255 0 -336 179q-26 60 -26 154t46 162q85 124 296 161q96 16 198 20l183 6v41zM461 1501h178l235 -291h-165l-160 181l-160 -181h-164z" />
    <glyph glyph-name="atilde" unicode="&#xe3;" horiz-adv-x="1101" 
d="M252 284q0 -66 48 -115q48 -48 159 -48q158 0 246 78t88 213v118l-170 -6q-211 -8 -295 -64q-42 -28 -58 -69q-18 -41 -18 -107zM793 698q1 134 -57 194t-186 60t-188 -42t-77 -115l-162 18q29 145 137 212q109 67 295 67q327 0 392 -234q22 -76 22 -170v-688h-172v145
q-137 -168 -365 -170q-255 0 -336 179q-26 60 -26 154t46 162q85 124 296 161q96 16 198 20l183 6v41zM772 1473h131q0 -119 -55 -179t-140 -61q-85 0 -171 54q-33 19 -64 37t-73 17q-82 0 -85 -102h-131q0 119 56 179t141 60q86 0 170 -52q85 -53 131 -54q90 0 90 101z" />
    <glyph glyph-name="adieresis" unicode="&#xe4;" horiz-adv-x="1101" 
d="M252 284q0 -66 48 -115q48 -48 159 -48q158 0 246 78t88 213v118l-170 -6q-211 -8 -295 -64q-42 -28 -58 -69q-18 -41 -18 -107zM793 698q1 134 -57 194t-186 60t-188 -42t-77 -115l-162 18q29 145 137 212q109 67 295 67q327 0 392 -234q22 -76 22 -170v-688h-172v145
q-137 -168 -365 -170q-255 0 -336 179q-26 60 -26 154t46 162q85 124 296 161q96 16 198 20l183 6v41zM633 1462h182v-202h-182v202zM276 1462h181v-202h-181v202z" />
    <glyph glyph-name="aring" unicode="&#xe5;" horiz-adv-x="1101" 
d="M252 284q0 -66 48 -115q48 -48 159 -48q158 0 246 78t88 213v118l-170 -6q-211 -8 -295 -64q-42 -28 -58 -69q-18 -41 -18 -107zM793 698q1 134 -57 194t-186 60t-188 -42t-77 -115l-162 18q29 145 137 212q109 67 295 67q327 0 392 -234q22 -76 22 -170v-688h-172v145
q-137 -168 -365 -170q-255 0 -336 179q-26 60 -26 154t46 162q85 124 296 161q96 16 198 20l183 6v41zM547 1518q-98 0 -97 -106t99 -105q98 -1 97 105t-99 106zM340 1411q0 101 61 155t148 54t147 -55t61 -154t-59 -151t-148 -53q-87 -1 -149 50q-61 52 -61 154z" />
    <glyph glyph-name="ae" unicode="&#xe6;" horiz-adv-x="1826" 
d="M1552 618q0 241 -105.5 288.5t-180.5 47.5q-135 0 -213 -86t-95 -250h594zM252 290q0 -60 42 -114.5t186 -52.5t222 81t78 208v118l-170 -6q-292 -11 -325 -92.5t-33 -141.5zM70 293q0 199 144 273.5t384 84.5l182 6v31q0 139 -53 201.5t-180 62.5t-185.5 -42t-76.5 -115
l-162 18q22 139 134 208t264 69q151 0 243 -41t137 -146q135 189 367 189t346.5 -140.5t114.5 -376.5v-90h-775q6 -259 122 -316.5t218 -57.5t163 50t83 136h172q-27 -154 -135.5 -242t-308.5 -88q-147 0 -251 62.5t-155 169.5q-144 -224 -418 -224q-166 0 -270 79t-104 239
z" />
    <glyph glyph-name="ccedilla" unicode="&#xe7;" horiz-adv-x="1144" 
d="M508 -311q115 0 115 63q0 35 -30 50.5t-112 15.5h-43l58 157q-195 31 -294.5 176.5t-99.5 388.5t137 397.5t371 154.5q190 0 295 -93.5t133 -257.5l-178 -32q-46 235 -256 235q-161 0 -237 -114.5t-76 -353t112.5 -300t198.5 -61.5q129 0 191.5 65.5t80.5 177.5h181
q-27 -180 -136.5 -283.5t-310.5 -107.5l-22 -65q184 -20 184 -162q0 -92 -69.5 -129t-163.5 -37t-152 10v113q78 -8 123 -8z" />
    <glyph glyph-name="egrave" unicode="&#xe8;" horiz-adv-x="1167" 
d="M891 618q0 240 -158 312q-55 25 -133 24q-141 0 -220 -86t-93 -250h604zM602 -33q-242 1 -371 147t-129 412t139 416t368 150q228 0 344 -142t116 -375v-90h-786q0 -163 85 -270q85 -106 226 -105t203 51q61 50 84 136h172q-27 -154 -137 -242t-314 -88zM311 1501h219
l234 -291h-176z" />
    <glyph glyph-name="eacute" unicode="&#xe9;" horiz-adv-x="1167" 
d="M891 618q0 240 -158 312q-55 25 -133 24q-141 0 -220 -86t-93 -250h604zM602 -33q-242 1 -371 147t-129 412t139 416t368 150q228 0 344 -142t116 -375v-90h-786q0 -163 85 -270q85 -106 226 -105t203 51q61 50 84 136h172q-27 -154 -137 -242t-314 -88zM692 1501h219
l-276 -291h-176z" />
    <glyph glyph-name="ecircumflex" unicode="&#xea;" horiz-adv-x="1167" 
d="M891 618q0 240 -158 312q-55 25 -133 24q-141 0 -220 -86t-93 -250h604zM602 -33q-242 1 -371 147t-129 412t139 416t368 150q228 0 344 -142t116 -375v-90h-786q0 -163 85 -270q85 -106 226 -105t203 51q61 50 84 136h172q-27 -154 -137 -242t-314 -88zM508 1501h178
l236 -291h-166l-160 181l-160 -181h-164z" />
    <glyph glyph-name="edieresis" unicode="&#xeb;" horiz-adv-x="1167" 
d="M891 618q0 240 -158 312q-55 25 -133 24q-141 0 -220 -86t-93 -250h604zM602 -33q-242 1 -371 147t-129 412t139 416t368 150q228 0 344 -142t116 -375v-90h-786q0 -163 85 -270q85 -106 226 -105t203 51q61 50 84 136h172q-27 -154 -137 -242t-314 -88zM684 1462h182
v-202h-182v202zM328 1462h180v-202h-180v202z" />
    <glyph glyph-name="igrave" unicode="&#xec;" horiz-adv-x="460" 
d="M141 1059h178v-1059h-178v1059zM-104 1501h219l233 -291h-176z" />
    <glyph glyph-name="iacute" unicode="&#xed;" horiz-adv-x="460" 
d="M141 1059h178v-1059h-178v1059zM356 1501h219l-276 -291h-176z" />
    <glyph glyph-name="icircumflex" unicode="&#xee;" horiz-adv-x="460" 
d="M141 1059h178v-1059h-178v1059zM143 1501h179l235 -291h-166l-160 181l-159 -181h-164z" />
    <glyph glyph-name="idieresis" unicode="&#xef;" horiz-adv-x="460" 
d="M141 1059h178v-1059h-178v1059zM319 1462h183v-202h-183v202zM-37 1462h180v-202h-180v202z" />
    <glyph glyph-name="eth" unicode="&#xf0;" horiz-adv-x="1230" 
d="M940 516q0 152 -76 238q-86 104 -248 104t-243.5 -105t-81.5 -266t82 -265.5t240 -104.5q159 0 243 102.5t84 267.5v29zM1128 567q0 -283 -139 -441.5t-374 -158.5t-374 141t-139 373.5t140 378.5t350 146q113 0 189.5 -34t140.5 -102q-55 279 -291 396l-158 -156l-82 84
l115 117q-111 33 -236 41l27 143q208 -23 326 -70l131 129l82 -86l-97 -96q389 -217 389 -805z" />
    <glyph glyph-name="ntilde" unicode="&#xf1;" horiz-adv-x="1167" 
d="M684 1092q354 0 354 -387v-705h-178v670q0 148 -53 208t-176 60t-211 -86q-51 -45 -78 -95t-27 -130v-627h-178v1059h176v-162q146 195 371 195zM823 1473h131q0 -119 -55 -179t-140 -61q-85 0 -171 54q-33 19 -64 37q-32 18 -74 17q-84 0 -83 -102h-131q0 119 55 179
t141 60t170 -52q85 -53 131 -54q90 0 90 101z" />
    <glyph glyph-name="ograve" unicode="&#xf2;" horiz-adv-x="1230" 
d="M614 115q86 1 148 31q178 89 178 382q0 294 -178 385q-62 31 -148 31t-146 -31q-177 -91 -177 -385t176 -383q61 -30 147 -30zM102 524q0 259 142 414q142 154 375 154q234 0 373 -151q138 -151 137 -409q-1 -259 -140 -412t-377 -153q-239 0 -374 149q-136 149 -136 408
zM334 1501h219l233 -291h-176z" />
    <glyph glyph-name="oacute" unicode="&#xf3;" horiz-adv-x="1230" 
d="M614 115q86 1 148 31q178 89 178 382q0 294 -178 385q-62 31 -148 31t-146 -31q-177 -91 -177 -385t176 -383q61 -30 147 -30zM102 524q0 259 142 414q142 154 375 154q234 0 373 -151q138 -151 137 -409q-1 -259 -140 -412t-377 -153q-239 0 -374 149q-136 149 -136 408
zM702 1501h220l-277 -291h-176z" />
    <glyph glyph-name="ocircumflex" unicode="&#xf4;" horiz-adv-x="1230" 
d="M614 115q86 1 148 31q178 89 178 382q0 294 -178 385q-62 31 -148 31t-146 -31q-177 -91 -177 -385t176 -383q61 -30 147 -30zM102 524q0 259 142 414q142 154 375 154q234 0 373 -151q138 -151 137 -409q-1 -259 -140 -412t-377 -153q-239 0 -374 149q-136 149 -136 408
zM526 1501h179l235 -291h-166l-160 181l-159 -181h-164z" />
    <glyph glyph-name="otilde" unicode="&#xf5;" horiz-adv-x="1230" 
d="M614 115q86 1 148 31q178 89 178 382q0 294 -178 385q-62 31 -148 31t-146 -31q-177 -91 -177 -385t176 -383q61 -30 147 -30zM102 524q0 259 142 414q142 154 375 154q234 0 373 -151q138 -151 137 -409q-1 -259 -140 -412t-377 -153q-239 0 -374 149q-136 149 -136 408
zM256 1239q0 119 55 179t141 60t171 -52q85 -53 133 -53q86 -1 88 100h131q0 -119 -55 -179t-139 -61q-84 0 -173 54q-34 19 -64 37t-73 17q-82 0 -84 -102h-131z" />
    <glyph glyph-name="odieresis" unicode="&#xf6;" horiz-adv-x="1230" 
d="M614 115q86 1 148 31q178 89 178 382q0 294 -178 385q-62 31 -148 31t-146 -31q-177 -91 -177 -385t176 -383q61 -30 147 -30zM102 524q0 259 142 414q142 154 375 154q234 0 373 -151q138 -151 137 -409q-1 -259 -140 -412t-377 -153q-239 0 -374 149q-136 149 -136 408
zM702 1462h183v-202h-183v202zM346 1462h180v-202h-180v202z" />
    <glyph glyph-name="divide" unicode="&#xf7;" horiz-adv-x="1212" 
d="M164 778h885v-162h-885v162zM512 438h190v-219h-190v219zM512 1176h190v-220h-190v220z" />
    <glyph glyph-name="oslash" unicode="&#xf8;" horiz-adv-x="1230" 
d="M608 115q171 0 251.5 111.5t80.5 292.5q0 180 -59 284l-435 -647q70 -41 162 -41zM623 944q-170 0 -251 -110t-81 -296t61 -284l434 645q-68 45 -163 45zM618 1092q147 0 256 -60l91 133l108 -75l-92 -138q147 -151 147 -415q0 -263 -138 -416.5t-390 -153.5
q-130 0 -242 56l-96 -142l-108 78l96 143q-148 147 -148 414t141 421.5t375 154.5z" />
    <glyph glyph-name="ugrave" unicode="&#xf9;" horiz-adv-x="1148" 
d="M131 356v703h178v-668q0 -147 48 -209t162 -61q114 0 210 86q51 45 78 95t27 130v627h178v-1059h-176v164q-151 -197 -363 -197q-180 -1 -261 97t-81 292zM274 1501h220l233 -291h-176z" />
    <glyph glyph-name="uacute" unicode="&#xfa;" horiz-adv-x="1148" 
d="M131 356v703h178v-668q0 -147 48 -209t162 -61q114 0 210 86q51 45 78 95t27 130v627h178v-1059h-176v164q-151 -197 -363 -197q-180 -1 -261 97t-81 292zM664 1501h219l-277 -291h-176z" />
    <glyph glyph-name="ucircumflex" unicode="&#xfb;" horiz-adv-x="1148" 
d="M131 356v703h178v-668q0 -147 48 -209t162 -61q114 0 210 86q51 45 78 95t27 130v627h178v-1059h-176v164q-151 -197 -363 -197q-180 -1 -261 97t-81 292zM485 1501h179l235 -291h-166l-160 181l-159 -181h-164z" />
    <glyph glyph-name="udieresis" unicode="&#xfc;" horiz-adv-x="1148" 
d="M131 356v703h178v-668q0 -147 48 -209t162 -61q114 0 210 86q51 45 78 95t27 130v627h178v-1059h-176v164q-151 -197 -363 -197q-180 -1 -261 97t-81 292zM659 1462h183v-202h-183v202zM303 1462h180v-202h-180v202z" />
    <glyph glyph-name="yacute" unicode="&#xfd;" horiz-adv-x="1071" 
d="M390 -378q-48 -20 -129 -19q-81 0 -163 28l35 144q57 -21 119 -21t98 34t70 126l43 113l-449 1032h207l334 -832l305 832h197l-463 -1159q-29 -72 -57 -126q-63 -118 -147 -152zM618 1501h220l-277 -291h-176z" />
    <glyph glyph-name="thorn" unicode="&#xfe;" horiz-adv-x="1222" 
d="M313 500q0 -194 83.5 -289.5t228.5 -95.5q217 0 262 152.5t45 268.5q0 215 -84.5 311.5t-217.5 96.5t-225 -95t-92 -278v-71zM315 -397h-178v1859h178v-551q140 181 357 181t332.5 -151t115.5 -409t-127 -411.5t-339 -153.5q-211 0 -339 164v-528z" />
    <glyph glyph-name="ydieresis" unicode="&#xff;" horiz-adv-x="1071" 
d="M390 -378q-48 -20 -129 -19q-81 0 -163 28l35 144q57 -21 119 -21t98 34t70 126l43 113l-449 1032h207l334 -832l305 832h197l-463 -1159q-29 -72 -57 -126q-63 -118 -147 -152zM623 1462h182v-202h-182v202zM266 1462h180v-202h-180v202z" />
    <glyph glyph-name="Amacron" unicode="&#x100;" horiz-adv-x="1380" 
d="M942 571l-258 678l-254 -678h512zM592 1462h199l567 -1462h-205l-154 408h-626l-154 -408h-196zM389 1780h598v-152h-598v152z" />
    <glyph glyph-name="amacron" unicode="&#x101;" horiz-adv-x="1101" 
d="M252 284q0 -66 48 -115q48 -48 159 -48q158 0 246 78t88 213v118l-170 -6q-211 -8 -295 -64q-42 -28 -58 -69q-18 -41 -18 -107zM793 698q1 134 -57 194t-186 60t-188 -42t-77 -115l-162 18q29 145 137 212q109 67 295 67q327 0 392 -234q22 -76 22 -170v-688h-172v145
q-137 -168 -365 -170q-255 0 -336 179q-26 60 -26 154t46 162q85 124 296 161q96 16 198 20l183 6v41zM270 1419h535v-145h-535v145z" />
    <glyph glyph-name="Abreve" unicode="&#x102;" horiz-adv-x="1380" 
d="M942 571l-258 678l-254 -678h512zM592 1462h199l567 -1462h-205l-154 408h-626l-154 -408h-196zM545 1868q0 -86 41 -125t101 -39t104 39q43 39 43 125h139q0 -139 -76 -212t-209 -73t-208 73t-74 212h139z" />
    <glyph glyph-name="abreve" unicode="&#x103;" horiz-adv-x="1101" 
d="M252 284q0 -66 48 -115q48 -48 159 -48q158 0 246 78t88 213v118l-170 -6q-211 -8 -295 -64q-42 -28 -58 -69q-18 -41 -18 -107zM793 698q1 134 -57 194t-186 60t-188 -42t-77 -115l-162 18q29 145 137 212q109 67 295 67q327 0 392 -234q22 -76 22 -170v-688h-172v145
q-137 -168 -365 -170q-255 0 -336 179q-26 60 -26 154t46 162q85 124 296 161q96 16 198 20l183 6v41zM401 1493q0 -86 42 -126q41 -40 101 -40t103 40t43 126h135q-1 -137 -75 -211t-205 -74t-205 74t-74 211h135z" />
    <glyph glyph-name="Aogonek" unicode="&#x104;" horiz-adv-x="1380" 
d="M942 571l-258 678l-254 -678h512zM1057 -213q0 108 139 213h-43l-154 408h-626l-154 -408h-196l569 1462h199l567 -1462q-135 -96 -135 -180q0 -43 25.5 -57.5t49.5 -14.5h27q27 0 37 2v-127q-20 -4 -66 -4q-131 0 -185 44t-54 124z" />
    <glyph glyph-name="aogonek" unicode="&#x105;" horiz-adv-x="1101" 
d="M252 284q0 -66 48 -114.5t159 -48.5q158 0 246 77.5t88 213.5v118l-170 -6q-301 -11 -336 -92.5t-35 -147.5zM911 -369q-129 0 -180 42t-51 120q0 106 137 207h-20v145q-138 -170 -365 -170q-256 0 -309 119.5t-53 213.5t46 162.5t147.5 119.5t346.5 61l183 6v41
q0 135 -57.5 194.5t-185.5 59.5t-187.5 -42t-77.5 -115l-162 18q29 145 137.5 212t294.5 67q326 0 370 -155t44 -249v-688q-129 -96 -129 -176q0 -70 86 -70h18q17 0 33 2v-121q-28 -4 -66 -4z" />
    <glyph glyph-name="Cacute" unicode="&#x106;" horiz-adv-x="1454" 
d="M764 1499q377 0 511 -285q42 -88 64 -194l-184 -31q-39 173 -129 260q-91 88 -262 86q-214 0 -336 -165q-121 -166 -121 -440t120 -438q120 -165 339 -165q277 0 360 211q27 66 39 143h195q-25 -233 -177 -376q-152 -142 -438 -142q-287 0 -461 203q-173 203 -173 564
t183 565t470 204zM842 1860h221l-283 -277h-178z" />
    <glyph glyph-name="cacute" unicode="&#x107;" horiz-adv-x="1144" 
d="M102 525q0 259 138 413t370 154q190 0 294 -94t134 -257l-178 -32q-34 172 -150 218q-44 17 -117 17t-132 -32q-170 -92 -170 -382q0 -289 166 -383q59 -33 145 -32q129 0 192 65q62 66 80 178h181q-27 -182 -140 -286t-335 -104t-350 149t-128 408zM676 1501h219
l-277 -291h-176z" />
    <glyph glyph-name="Ccircumflex" unicode="&#x108;" horiz-adv-x="1454" 
d="M764 1499q377 0 511 -285q42 -88 64 -194l-184 -31q-39 173 -129 260q-91 88 -262 86q-214 0 -336 -165q-121 -166 -121 -440t120 -438q120 -165 339 -165q277 0 360 211q27 66 39 143h195q-25 -233 -177 -376q-152 -142 -438 -142q-287 0 -461 203q-173 203 -173 564
t183 565t470 204zM676 1860h178l236 -277h-168l-158 162l-158 -162h-168z" />
    <glyph glyph-name="ccircumflex" unicode="&#x109;" horiz-adv-x="1144" 
d="M102 525q0 259 138 413t370 154q190 0 294 -94t134 -257l-178 -32q-34 172 -150 218q-44 17 -117 17t-132 -32q-170 -92 -170 -382q0 -289 166 -383q59 -33 145 -32q129 0 192 65q62 66 80 178h181q-27 -182 -140 -286t-335 -104t-350 149t-128 408zM516 1501h178
l236 -291h-166l-160 181l-160 -181h-163z" />
    <glyph glyph-name="Cdotaccent" unicode="&#x10a;" horiz-adv-x="1454" 
d="M764 1499q377 0 511 -285q42 -88 64 -194l-184 -31q-39 173 -129 260q-91 88 -262 86q-214 0 -336 -165q-121 -166 -121 -440t120 -438q120 -165 339 -165q277 0 360 211q27 66 39 143h195q-25 -233 -177 -376q-152 -142 -438 -142q-287 0 -461 203q-173 203 -173 564
t183 565t470 204zM670 1831h190v-215h-190v215z" />
    <glyph glyph-name="cdotaccent" unicode="&#x10b;" horiz-adv-x="1144" 
d="M102 525q0 259 138 413t370 154q190 0 294 -94t134 -257l-178 -32q-34 172 -150 218q-44 17 -117 17t-132 -32q-170 -92 -170 -382q0 -289 166 -383q59 -33 145 -32q129 0 192 65q62 66 80 178h181q-27 -182 -140 -286t-335 -104t-350 149t-128 408zM514 1464h182v-207
h-182v207z" />
    <glyph glyph-name="Ccaron" unicode="&#x10c;" horiz-adv-x="1454" 
d="M764 1499q377 0 511 -285q42 -88 64 -194l-184 -31q-39 173 -129 260q-91 88 -262 86q-214 0 -336 -165q-121 -166 -121 -440t120 -438q120 -165 339 -165q277 0 360 211q27 66 39 143h195q-25 -233 -177 -376q-152 -142 -438 -142q-287 0 -461 203q-173 203 -173 564
t183 565t470 204zM438 1866h170l158 -164l158 164h166l-236 -275h-178z" />
    <glyph glyph-name="ccaron" unicode="&#x10d;" horiz-adv-x="1144" 
d="M102 525q0 259 138 413t370 154q190 0 294 -94t134 -257l-178 -32q-34 172 -150 218q-44 17 -117 17t-132 -32q-170 -92 -170 -382q0 -289 166 -383q59 -33 145 -32q129 0 192 65q62 66 80 178h181q-27 -182 -140 -286t-335 -104t-350 149t-128 408zM692 1214h-178
l-235 291h165l160 -180l160 180h164z" />
    <glyph glyph-name="Dcaron" unicode="&#x10e;" horiz-adv-x="1462" 
d="M1157 737q0 567 -483 563h-324v-1136h285q272 0 397 152t125 421zM162 1462h512q490 0 633 -403q47 -135 47 -319q0 -364 -193 -552t-534 -188h-465v1462zM307 1866h170l158 -164l158 164h165l-235 -275h-178z" />
    <glyph glyph-name="dcaron" unicode="&#x10f;" horiz-adv-x="1417" 
d="M909 561q0 127 -27 198q-28 71 -82 114t-100 57t-108 14q-135 0 -220 -102t-84 -317q1 -216 87 -312t205 -96t204 63q127 102 125 309v72zM907 152q-139 -185 -358 -185q-220 0 -333 155q-114 155 -114 409t125 407q125 154 336 154q212 0 340 -162v532h178v-1462h-174
v152zM1272 1462h176l-94 -418h-137z" />
    <glyph glyph-name="Dcroat" unicode="&#x110;" horiz-adv-x="1488" 
d="M1184 737q0 567 -484 563h-323v-464h373v-160h-373v-512h285q272 0 397 152t125 421zM188 676h-168v160h168v626h512q493 0 633 -403q47 -135 47 -319q0 -363 -192 -551q-192 -189 -535 -189h-465v676z" />
    <glyph glyph-name="dcroat" unicode="&#x111;" horiz-adv-x="1245" 
d="M909 524q0 119 -27.5 188.5t-81.5 112.5q-90 72 -215 72q-124 0 -210 -98.5t-86 -295.5t86 -291.5t205 -94.5t204 63q125 100 125 285v59zM909 152q-139 -185 -359 -185t-334 153.5t-114 387.5t126.5 385t344.5 151q86 0 171 -32.5t161 -128.5v299h-346v129h346v151h178
v-151h142v-129h-142v-1182h-174v152z" />
    <glyph glyph-name="Emacron" unicode="&#x112;" horiz-adv-x="1216" 
d="M162 1462h946v-166h-758v-458h717v-168h-717v-504h797l-31 -166h-954v1462zM342 1780h598v-152h-598v152z" />
    <glyph glyph-name="emacron" unicode="&#x113;" horiz-adv-x="1167" 
d="M891 618q0 240 -158 312q-55 25 -133 24q-141 0 -220 -86t-93 -250h604zM602 -33q-242 1 -371 147t-129 412t139 416t368 150q228 0 344 -142t116 -375v-90h-786q0 -163 85 -270q85 -106 226 -105t203 51q61 50 84 136h172q-27 -154 -137 -242t-314 -88zM336 1419h534
v-145h-534v145z" />
    <glyph glyph-name="Ebreve" unicode="&#x114;" horiz-adv-x="1216" 
d="M162 1462h946v-166h-758v-458h717v-168h-717v-504h797l-31 -166h-954v1462zM498 1868q0 -86 41 -125t101 -39t103 39t43 125h140q0 -139 -76 -212t-209 -73t-208 73t-75 212h140z" />
    <glyph glyph-name="ebreve" unicode="&#x115;" horiz-adv-x="1167" 
d="M891 618q0 240 -158 312q-55 25 -133 24q-141 0 -220 -86t-93 -250h604zM602 -33q-242 1 -371 147t-129 412t139 416t368 150q228 0 344 -142t116 -375v-90h-786q0 -163 85 -270q85 -106 226 -105t203 51q61 50 84 136h172q-27 -154 -137 -242t-314 -88zM459 1493
q0 -86 42 -126t101 -40t103 40q43 40 43 126h135q0 -137 -75 -211t-206 -74t-205 74t-73 211h135z" />
    <glyph glyph-name="Edotaccent" unicode="&#x116;" horiz-adv-x="1216" 
d="M162 1462h946v-166h-758v-458h717v-168h-717v-504h797l-31 -166h-954v1462zM547 1831h190v-215h-190v215z" />
    <glyph glyph-name="edotaccent" unicode="&#x117;" horiz-adv-x="1167" 
d="M891 618q0 240 -158 312q-55 25 -133 24q-141 0 -220 -86t-93 -250h604zM602 -33q-242 1 -371 147t-129 412t139 416t368 150q228 0 344 -142t116 -375v-90h-786q0 -163 85 -270q85 -106 226 -105t203 51q61 50 84 136h172q-27 -154 -137 -242t-314 -88zM512 1464h182
v-207h-182v207z" />
    <glyph glyph-name="Eogonek" unicode="&#x118;" horiz-adv-x="1216" 
d="M815 -213q0 106 139 213h-792v1462h946v-166h-758v-458h717v-168h-717v-504h797l-31 -166q-135 -96 -135 -180q0 -43 25.5 -57.5t49.5 -14.5h27q27 0 37 2v-127q-20 -4 -65 -4q-131 0 -185.5 44t-54.5 124z" />
    <glyph glyph-name="eogonek" unicode="&#x119;" horiz-adv-x="1167" 
d="M891 618q0 241 -106.5 288.5t-184.5 47.5q-141 0 -220 -86t-93 -250h604zM754 -369q-129 0 -180.5 42t-51.5 126t96 168h-16q-242 0 -371 146.5t-129 412.5t138.5 416t367.5 150t345 -141t116 -376v-90h-786q0 -163 84.5 -268.5t225.5 -105.5q142 0 203.5 50t84.5 136
h172q-37 -223 -244 -299q-127 -94 -127 -174q0 -70 86 -70h18q17 0 33 2v-121q-28 -4 -65 -4z" />
    <glyph glyph-name="Ecaron" unicode="&#x11a;" horiz-adv-x="1216" 
d="M162 1462h946v-166h-758v-458h717v-168h-717v-504h797l-31 -166h-954v1462zM315 1866h170l158 -164l158 164h166l-236 -275h-178z" />
    <glyph glyph-name="ecaron" unicode="&#x11b;" horiz-adv-x="1167" 
d="M891 618q0 240 -158 312q-55 25 -133 24q-141 0 -220 -86t-93 -250h604zM602 -33q-242 1 -371 147t-129 412t139 416t368 150q228 0 344 -142t116 -375v-90h-786q0 -163 85 -270q85 -106 226 -105t203 51q61 50 84 136h172q-27 -154 -137 -242t-314 -88zM692 1214h-178
l-235 291h165l160 -180l160 180h164z" />
    <glyph glyph-name="Gcircumflex" unicode="&#x11c;" horiz-adv-x="1466" 
d="M788 127q231 0 383 111v350h-368v164h547v-586q-104 -96 -253 -150q-149 -53 -310 -53q-321 0 -498 201q-178 201 -178 563t182 567t475 205q352 0 487 -247q43 -77 66 -171l-182 -30q-53 210 -220 266q-62 20 -164 20t-188 -44q-168 -86 -230 -315q-30 -112 -30 -247
q0 -433 268 -561q90 -43 213 -43zM682 1860h178l236 -277h-168l-158 162l-158 -162h-168z" />
    <glyph glyph-name="gcircumflex" unicode="&#x11d;" horiz-adv-x="1218" 
d="M907 569q0 195 -86 285t-223 90q-218 0 -286 -211q-24 -74 -24 -179t26 -179q71 -205 272 -205q141 0 232 94t89 271v34zM903 201q-127 -179 -350 -180t-338 151t-115 388q0 235 128 384q128 148 339 148q212 0 338 -168v135h176v-887q0 -303 -91 -433
q-107 -159 -382 -159q-210 0 -328 75t-139 247h176q23 -96 87 -138q66 -40 218 -40t217 93t64 271v113zM535 1501h178l235 -291h-166l-159 181l-160 -181h-164z" />
    <glyph glyph-name="Gbreve" unicode="&#x11e;" horiz-adv-x="1466" 
d="M788 127q231 0 383 111v350h-368v164h547v-586q-104 -96 -253 -150q-149 -53 -310 -53q-321 0 -498 201q-178 201 -178 563t182 567t475 205q352 0 487 -247q43 -77 66 -171l-182 -30q-53 210 -220 266q-62 20 -164 20t-188 -44q-168 -86 -230 -315q-30 -112 -30 -247
q0 -433 268 -561q90 -43 213 -43zM627 1868q0 -86 41 -125t101 -39t103 39t43 125h140q0 -139 -76 -212t-209 -73t-208 73t-75 212h140z" />
    <glyph glyph-name="gbreve" unicode="&#x11f;" horiz-adv-x="1218" 
d="M907 569q0 195 -86 285t-223 90q-218 0 -286 -211q-24 -74 -24 -179t26 -179q71 -205 272 -205q141 0 232 94t89 271v34zM903 201q-127 -179 -350 -180t-338 151t-115 388q0 235 128 384q128 148 339 148q212 0 338 -168v135h176v-887q0 -303 -91 -433
q-107 -159 -382 -159q-210 0 -328 75t-139 247h176q23 -96 87 -138q66 -40 218 -40t217 93t64 271v113zM479 1493q0 -86 42 -126q41 -40 101 -40t103 40t43 126h135q0 -137 -75 -211q-76 -74 -206 -74t-204 74t-74 211h135z" />
    <glyph glyph-name="Gdotaccent" unicode="&#x120;" horiz-adv-x="1466" 
d="M788 127q231 0 383 111v350h-368v164h547v-586q-104 -96 -253 -150q-149 -53 -310 -53q-321 0 -498 201q-178 201 -178 563t182 567t475 205q352 0 487 -247q43 -77 66 -171l-182 -30q-53 210 -220 266q-62 20 -164 20t-188 -44q-168 -86 -230 -315q-30 -112 -30 -247
q0 -433 268 -561q90 -43 213 -43zM676 1831h190v-215h-190v215z" />
    <glyph glyph-name="gdotaccent" unicode="&#x121;" horiz-adv-x="1218" 
d="M907 569q0 195 -86 285t-223 90q-218 0 -286 -211q-24 -74 -24 -179t26 -179q71 -205 272 -205q141 0 232 94t89 271v34zM903 201q-127 -179 -350 -180t-338 151t-115 388q0 235 128 384q128 148 339 148q212 0 338 -168v135h176v-887q0 -303 -91 -433
q-107 -159 -382 -159q-210 0 -328 75t-139 247h176q23 -96 87 -138q66 -40 218 -40t217 93t64 271v113zM522 1464h183v-207h-183v207z" />
    <glyph glyph-name="Gcommaaccent" unicode="&#x122;" horiz-adv-x="1466" 
d="M788 127q231 0 383 111v350h-368v164h547v-586q-104 -96 -253 -150q-149 -53 -310 -53q-321 0 -498 201q-178 201 -178 563t182 567t475 205q352 0 487 -247q43 -77 66 -171l-182 -30q-53 210 -220 266q-62 20 -164 20t-188 -44q-168 -86 -230 -315q-30 -112 -30 -247
q0 -433 268 -561q90 -43 213 -43zM702 -137h203l-196 -307h-162z" />
    <glyph glyph-name="gcommaaccent" unicode="&#x123;" horiz-adv-x="1218" 
d="M907 569q0 195 -86 285t-223 90q-218 0 -286 -211q-24 -74 -24 -179t26 -179q71 -205 272 -205q141 0 232 94t89 271v34zM903 201q-127 -179 -350 -180t-338 151t-115 388q0 235 128 384q128 148 339 148q212 0 338 -168v135h176v-887q0 -303 -91 -433
q-107 -159 -382 -159q-210 0 -328 75t-139 247h176q23 -96 87 -138q66 -40 218 -40t217 93t64 271v113zM686 1501h156l-152 -297h-194z" />
    <glyph glyph-name="Hcircumflex" unicode="&#x124;" horiz-adv-x="1439" 
d="M162 1462h188v-618h740v618h188v-1462h-188v668h-740v-668h-188v1462zM631 1860h178l235 -277h-167l-158 162l-158 -162h-168z" />
    <glyph glyph-name="hcircumflex" unicode="&#x125;" horiz-adv-x="1167" 
d="M684 1092q354 0 354 -387v-705h-180v670q0 148 -52 208t-175 60t-211 -86q-51 -45 -78 -95t-27 -130v-627h-178v1462h178v-561q149 191 369 191zM381 1860h178l236 -277h-168l-158 162l-158 -162h-168z" />
    <glyph glyph-name="Hbar" unicode="&#x126;" horiz-adv-x="1492" 
d="M1116 827v240h-739v-240h739zM188 1067h-168v156h168v239h189v-239h739v239h189v-239h168v-156h-168v-1067h-189v651h-739v-651h-189v1067z" />
    <glyph glyph-name="hbar" unicode="&#x127;" horiz-adv-x="1191" 
d="M707 1044q186 0 271 -99t85 -290v-655h-180v621q0 147 -52.5 208.5t-171.5 61.5t-217 -88q-51 -45 -76.5 -95.5t-25.5 -127.5v-580h-178v1182h-142v129h142v151h178v-151h346v-129h-346v-328q148 190 367 190z" />
    <glyph glyph-name="Itilde" unicode="&#x128;" horiz-adv-x="512" 
d="M162 1462h188v-1462h-188v1462zM-111 1595q-1 119 57 181t145 61q87 0 173 -54q33 -19 64 -37q32 -18 76 -17q86 0 85 104h136q1 -121 -57 -181t-158 -61q-51 -1 -89 17t-71 38t-64 36q-32 18 -76 18q-86 1 -85 -105h-136z" />
    <glyph glyph-name="itilde" unicode="&#x129;" horiz-adv-x="460" 
d="M141 1059h178v-1059h-178v1059zM-127 1239q0 119 55 179t141 60t171 -52q85 -53 133 -53q86 -1 88 100h131q0 -119 -55 -179t-139 -61q-84 0 -173 54q-33 19 -63 37t-74 17q-82 0 -84 -102h-131z" />
    <glyph glyph-name="Imacron" unicode="&#x12a;" horiz-adv-x="512" 
d="M162 1462h188v-1462h-188v1462zM-43 1780h598v-152h-598v152z" />
    <glyph glyph-name="imacron" unicode="&#x12b;" horiz-adv-x="460" 
d="M141 1059h178v-1059h-178v1059zM-35 1419h535v-145h-535v145z" />
    <glyph glyph-name="Ibreve" unicode="&#x12c;" horiz-adv-x="512" 
d="M162 1462h188v-1462h-188v1462zM113 1868q0 -86 41 -125t101 -39t103 39t43 125h140q0 -139 -76 -212t-209 -73t-208 73t-75 212h140z" />
    <glyph glyph-name="ibreve" unicode="&#x12d;" horiz-adv-x="460" 
d="M141 1059h178v-1059h-178v1059zM88 1493q0 -86 42 -126t101 -40t103 40q43 40 43 126h135q0 -137 -75 -211t-206 -74t-205 74t-73 211h135z" />
    <glyph glyph-name="Iogonek" unicode="&#x12e;" horiz-adv-x="512" 
d="M289 -381q-131 0 -185.5 44t-54.5 124q0 106 139 213h-26v1462h188v-1462q-135 -96 -135 -180q0 -43 25.5 -57.5t49.5 -14.5h27q27 0 37 2v-127q-20 -4 -65 -4z" />
    <glyph glyph-name="iogonek" unicode="&#x12f;" horiz-adv-x="460" 
d="M135 1462h191v-207h-191v207zM262 -369q-129 0 -180 42t-51 120q0 106 137 207h-27v1059h178v-1059q-129 -96 -129 -176q0 -70 86 -70h18q17 0 34 2v-121q-28 -4 -66 -4z" />
    <glyph glyph-name="Idotaccent" unicode="&#x130;" horiz-adv-x="512" 
d="M162 1462h188v-1462h-188v1462zM162 1831h190v-215h-190v215z" />
    <glyph glyph-name="dotlessi" unicode="&#x131;" horiz-adv-x="460" 
d="M141 1059h178v-1059h-178v1059z" />
    <glyph glyph-name="IJ" unicode="&#x132;" horiz-adv-x="1736" 
d="M162 1462h188v-1462h-188v1462zM1401 496v966h188v-981q0 -260 -133 -389t-363 -129q-479 0 -524 475h191q37 -311 327 -311q172 0 243 96t71 273z" />
    <glyph glyph-name="ij" unicode="&#x133;" horiz-adv-x="923" 
d="M135 1462h191v-207h-191v207zM141 1059h178v-1059h-178v1059zM604 -59v1118h178v-1071q0 -180 -56 -264q-69 -105 -230 -105q-109 0 -199 33l31 141q58 -20 136 -20t110 41q30 41 30 127zM598 1462h190v-207h-190v207z" />
    <glyph glyph-name="Jcircumflex" unicode="&#x134;" horiz-adv-x="1222" 
d="M887 496v966h188v-981q0 -260 -133 -389t-363 -129q-479 0 -524 475h191q37 -311 327 -311q172 0 243 96t71 273zM889 1860h178l236 -277h-168l-158 162l-158 -162h-168z" />
    <glyph glyph-name="jcircumflex" unicode="&#x135;" horiz-adv-x="460" 
d="M1 -227q79 0 110 41t30 127v1118h178v-1071q0 -180 -56 -264q-69 -105 -230 -105q-109 0 -199 33l31 141q57 -20 136 -20zM143 1501h179l235 -291h-166l-160 181l-159 -181h-164z" />
    <glyph glyph-name="Kcommaaccent" unicode="&#x136;" horiz-adv-x="1331" 
d="M162 1462h190v-700l686 700h215l-522 -547l576 -915h-217l-496 791l-242 -242v-549h-190v1462zM616 -137h203l-196 -307h-162z" />
    <glyph glyph-name="kcommaaccent" unicode="&#x137;" horiz-adv-x="1071" 
d="M137 1462h176v-852l496 449h215l-379 -354l420 -705h-203l-350 600l-199 -178v-422h-176v1462zM487 -137h195l-190 -299h-156z" />
    <glyph glyph-name="kgreenlandic" unicode="&#x138;" horiz-adv-x="1071" 
d="M137 1059h176v-502l500 502h209l-375 -387l418 -672h-203l-346 563l-203 -198v-365h-176v1059z" />
    <glyph glyph-name="Lacute" unicode="&#x139;" horiz-adv-x="1150" 
d="M162 1462h188v-1294h758l-29 -168h-917v1462zM381 1860h221l-283 -277h-178z" />
    <glyph glyph-name="lacute" unicode="&#x13a;" horiz-adv-x="460" 
d="M141 1462h178v-1462h-178v1462zM358 1860h222l-283 -277h-178z" />
    <glyph glyph-name="Lcommaaccent" unicode="&#x13b;" horiz-adv-x="1150" 
d="M162 1462h188v-1294h758l-29 -168h-917v1462zM541 -137h202l-196 -307h-162z" />
    <glyph glyph-name="lcommaaccent" unicode="&#x13c;" horiz-adv-x="460" 
d="M141 1462h178v-1462h-178v1462zM137 -137h195l-191 -299h-155z" />
    <glyph glyph-name="Lcaron" unicode="&#x13d;" horiz-adv-x="1150" 
d="M162 1462h188v-1294h758l-29 -168h-917v1462zM734 1464h182l-98 -431h-141z" />
    <glyph glyph-name="lcaron" unicode="&#x13e;" horiz-adv-x="673" 
d="M141 1462h178v-1462h-178v1462zM508 1462h176l-94 -418h-137z" />
    <glyph glyph-name="Ldot" unicode="&#x13f;" horiz-adv-x="1150" 
d="M162 1462h188v-1294h758l-29 -168h-917v1462zM707 934h204v-240h-204v240z" />
    <glyph glyph-name="ldot" unicode="&#x140;" horiz-adv-x="704" 
d="M141 1462h178v-1462h-178v1462zM479 885h205v-240h-205v240z" />
    <glyph glyph-name="Lslash" unicode="&#x141;" horiz-adv-x="1177" 
d="M188 1462h189v-649l407 285v-176l-407 -285v-469h758l-29 -168h-918v504l-168 -117v176l168 117v782z" />
    <glyph glyph-name="lslash" unicode="&#x142;" horiz-adv-x="571" 
d="M197 1462h178v-532l186 133v-158l-186 -131v-774h-178v664l-187 -132v156l187 131v643z" />
    <glyph glyph-name="Nacute" unicode="&#x143;" horiz-adv-x="1435" 
d="M162 1462h186l744 -1161v1161h182v-1462h-180l-750 1155v-1155h-182v1462zM809 1860h221l-282 -277h-179z" />
    <glyph glyph-name="nacute" unicode="&#x144;" horiz-adv-x="1167" 
d="M684 1092q354 0 354 -387v-705h-178v670q0 148 -53 208t-176 60t-211 -86q-51 -45 -78 -95t-27 -130v-627h-178v1059h176v-162q146 195 371 195zM643 1501h219l-276 -291h-176z" />
    <glyph glyph-name="Ncommaaccent" unicode="&#x145;" horiz-adv-x="1435" 
d="M162 1462h186l744 -1161v1161h182v-1462h-180l-750 1155v-1155h-182v1462zM637 -137h203l-197 -307h-162z" />
    <glyph glyph-name="ncommaaccent" unicode="&#x146;" horiz-adv-x="1167" 
d="M684 1092q354 0 354 -387v-705h-178v670q0 148 -53 208t-176 60t-211 -86q-51 -45 -78 -95t-27 -130v-627h-178v1059h176v-162q146 195 371 195zM504 -137h194l-190 -299h-156z" />
    <glyph glyph-name="Ncaron" unicode="&#x147;" horiz-adv-x="1435" 
d="M162 1462h186l744 -1161v1161h182v-1462h-180l-750 1155v-1155h-182v1462zM395 1866h170l158 -164l158 164h166l-236 -275h-178z" />
    <glyph glyph-name="ncaron" unicode="&#x148;" horiz-adv-x="1167" 
d="M684 1092q354 0 354 -387v-705h-178v670q0 148 -53 208t-176 60t-211 -86q-51 -45 -78 -95t-27 -130v-627h-178v1059h176v-162q146 195 371 195zM684 1214h-178l-236 291h166l160 -180l160 180h164z" />
    <glyph glyph-name="napostrophe" unicode="&#x149;" horiz-adv-x="1294" 
d="M811 1092q354 0 354 -387v-705h-178v670q0 148 -53 208t-176 60t-211 -86q-51 -45 -78 -95t-27 -130v-627h-178v1059h176v-162q146 195 371 195zM59 1462h189l-109 -430h-137z" />
    <glyph glyph-name="Eng" unicode="&#x14a;" horiz-adv-x="1435" 
d="M344 0h-182v1462h186l744 -1161v1161h182v-1437q0 -445 -467 -445q-172 0 -291 49l47 160q108 -43 245 -43q138 0 206.5 65.5t68.5 204.5l-739 1139v-1155z" />
    <glyph glyph-name="eng" unicode="&#x14b;" horiz-adv-x="1167" 
d="M720 -227q78 0 109 41t31 127v729q0 147 -53 207.5t-175 60.5t-212 -86q-51 -45 -78 -95t-27 -130v-627h-178v1059h176v-162q146 195 371 195q354 0 354 -387v-719q0 -180 -63.5 -273.5t-222.5 -93.5q-100 0 -197 33l29 141q58 -20 136 -20z" />
    <glyph glyph-name="Omacron" unicode="&#x14c;" horiz-adv-x="1566" 
d="M1260 731q0 277 -123 441q-123 163 -353 163t-354 -163q-123 -163 -123 -443t121 -441t353 -161t356 164q123 163 123 440zM111 727q0 363 186 567q186 205 490 205t487 -201q182 -201 182 -564t-182 -567t-489 -204t-491 201q-183 200 -183 563zM483 1780h598v-152h-598
v152z" />
    <glyph glyph-name="omacron" unicode="&#x14d;" horiz-adv-x="1230" 
d="M614 115q86 1 148 31q178 89 178 382q0 294 -178 385q-62 31 -148 31t-146 -31q-177 -91 -177 -385t176 -383q61 -30 147 -30zM102 524q0 259 142 414q142 154 375 154q234 0 373 -151q138 -151 137 -409q-1 -259 -140 -412t-377 -153q-239 0 -374 149q-136 149 -136 408
zM348 1419h535v-145h-535v145z" />
    <glyph glyph-name="Obreve" unicode="&#x14e;" horiz-adv-x="1566" 
d="M1260 731q0 277 -123 441q-123 163 -353 163t-354 -163q-123 -163 -123 -443t121 -441t353 -161t356 164q123 163 123 440zM111 727q0 363 186 567q186 205 490 205t487 -201q182 -201 182 -564t-182 -567t-489 -204t-491 201q-183 200 -183 563zM639 1868q0 -86 41 -125
t101 -39t104 39q43 39 43 125h139q0 -139 -76 -212t-209 -73t-208 73t-74 212h139z" />
    <glyph glyph-name="obreve" unicode="&#x14f;" horiz-adv-x="1230" 
d="M614 115q86 1 148 31q178 89 178 382q0 294 -178 385q-62 31 -148 31t-146 -31q-177 -91 -177 -385t176 -383q61 -30 147 -30zM102 524q0 259 142 414q142 154 375 154q234 0 373 -151q138 -151 137 -409q-1 -259 -140 -412t-377 -153q-239 0 -374 149q-136 149 -136 408
zM471 1493q0 -86 42 -126t101 -40t103 40q43 40 43 126h135q0 -137 -75 -211t-206 -74q-130 0 -204 74t-74 211h135z" />
    <glyph glyph-name="Ohungarumlaut" unicode="&#x150;" horiz-adv-x="1566" 
d="M1260 731q0 277 -123 441q-123 163 -353 163t-354 -163q-123 -163 -123 -443t121 -441t353 -161t356 164q123 163 123 440zM111 727q0 363 186 567q186 205 490 205t487 -201q182 -201 182 -564t-182 -567t-489 -204t-491 201q-183 200 -183 563zM1094 1860h209
l-269 -277h-164zM725 1860h209l-266 -277h-164z" />
    <glyph glyph-name="ohungarumlaut" unicode="&#x151;" horiz-adv-x="1230" 
d="M614 115q86 1 148 31q178 89 178 382q0 294 -178 385q-62 31 -148 31t-146 -31q-177 -91 -177 -385t176 -383q61 -30 147 -30zM102 524q0 259 142 414q142 154 375 154q234 0 373 -151q138 -151 137 -409q-1 -259 -140 -412t-377 -153q-239 0 -374 149q-136 149 -136 408
zM905 1501h205l-256 -291h-160zM549 1501h205l-254 -291h-162z" />
    <glyph glyph-name="OE" unicode="&#x152;" horiz-adv-x="2203" 
d="M1204 728q0 276 -117 442.5t-330 166.5t-331.5 -165.5t-118.5 -439.5q0 -275 116 -441t331.5 -166t332.5 163.5t117 439.5zM1204 217q-161 -254 -448 -254t-466 203t-179 562.5t179.5 565t459.5 205.5q158 0 266 -62.5t188 -185.5v211h891v-166h-709v-458h668v-168h-668
v-504h748l-31 -166h-899v217z" />
    <glyph glyph-name="oe" unicode="&#x153;" horiz-adv-x="1982" 
d="M1706 618q0 240 -104.5 288t-180.5 48q-135 0 -214 -86t-93 -250h592zM847.5 226.5q80.5 111.5 80.5 303.5q0 296 -117 355t-202 59t-144 -30.5t-98 -85t-57.5 -130t-18.5 -168t18.5 -168t76.5 -161.5t220 -86q161 0 241.5 111.5zM1423 1092q228 0 344.5 -139t116.5 -378
v-90h-774q0 -166 83.5 -270t220.5 -104q138 0 198.5 50t83.5 136h172q-27 -154 -135.5 -242t-309.5 -88q-282 0 -407 252q-129 -252 -410 -252q-235 0 -369.5 149.5t-134.5 407.5t139.5 413t370.5 155q284 0 406 -246q126 246 405 246z" />
    <glyph glyph-name="Racute" unicode="&#x154;" horiz-adv-x="1294" 
d="M659 768q270 0 314 162q14 51 14 113q0 130 -76 194t-276 66h-287v-535h311zM637 606h-289v-606h-186v1462h479q294 0 433 -132q106 -102 106 -281q0 -139 -58 -237t-192 -155l307 -657h-211l-276 612q-41 -6 -113 -6zM698 1860h222l-283 -277h-178z" />
    <glyph glyph-name="racute" unicode="&#x155;" horiz-adv-x="749" 
d="M601 913q-107 0 -189 -75q-97 -84 -97 -209v-629h-178v1059h176v-164q59 88 139 135t154 47q72 0 111 -8l-23 -166q-51 10 -93 10zM520 1501h219l-276 -291h-176z" />
    <glyph glyph-name="Rcommaaccent" unicode="&#x156;" horiz-adv-x="1294" 
d="M659 768q270 0 314 162q14 51 14 113q0 130 -76 194t-276 66h-287v-535h311zM637 606h-289v-606h-186v1462h479q294 0 433 -132q106 -102 106 -281q0 -139 -58 -237t-192 -155l307 -657h-211l-276 612q-41 -6 -113 -6zM584 -137h202l-196 -307h-162z" />
    <glyph glyph-name="rcommaaccent" unicode="&#x157;" horiz-adv-x="749" 
d="M601 913q-107 0 -189 -75q-97 -84 -97 -209v-629h-178v1059h176v-164q59 88 139 135t154 47q72 0 111 -8l-23 -166q-51 10 -93 10zM143 -137h195l-191 -299h-155z" />
    <glyph glyph-name="Rcaron" unicode="&#x158;" horiz-adv-x="1294" 
d="M659 768q270 0 314 162q14 51 14 113q0 130 -76 194t-276 66h-287v-535h311zM637 606h-289v-606h-186v1462h479q294 0 433 -132q106 -102 106 -281q0 -139 -58 -237t-192 -155l307 -657h-211l-276 612q-41 -6 -113 -6zM268 1866h170l158 -164l158 164h166l-236 -275h-178
z" />
    <glyph glyph-name="rcaron" unicode="&#x159;" horiz-adv-x="749" 
d="M601 913q-107 0 -189 -75q-97 -84 -97 -209v-629h-178v1059h176v-164q59 88 139 135t154 47q72 0 111 -8l-23 -166q-51 10 -93 10zM516 1214h-178l-236 291h166l160 -180l160 180h164z" />
    <glyph glyph-name="Sacute" unicode="&#x15a;" horiz-adv-x="1316" 
d="M680 125q331 0 336 264q0 101 -57 163t-209 89l-185 33q-223 37 -338 132q-116 95 -115 288q1 194 151 300q150 107 388 105q383 0 495 -238q32 -69 48 -141l-176 -35q-35 133 -114 193q-80 61 -249 61q-278 0 -334 -144q-36 -92 -5 -186q25 -78 128 -118q51 -20 127 -35
l205 -37q228 -43 334 -142t106 -288t-139 -307q-140 -119 -397 -119q-407 0 -543 248q-47 86 -57 205h188q25 -154 122 -222t290 -69zM737 1860h221l-282 -277h-178z" />
    <glyph glyph-name="sacute" unicode="&#x15b;" horiz-adv-x="1069" 
d="M549 111q246 0 248 168q0 72 -38 112t-151 60l-135 20q-185 29 -276 98t-91 211q0 141 118 227q118 85 302 85q306 0 394 -177q27 -53 41 -112l-162 -27q-31 96 -88 135q-56 39 -154 39q-99 0 -147 -13q-130 -35 -134 -144q0 -70 31 -97q55 -46 170 -65l154 -25
q186 -30 267 -106t81 -217t-110 -228q-110 -88 -316 -88q-320 0 -428 183q-39 66 -45 159h172q18 -111 93 -155t204 -43zM629 1501h219l-277 -291h-176z" />
    <glyph glyph-name="Scircumflex" unicode="&#x15c;" horiz-adv-x="1316" 
d="M680 125q331 0 336 264q0 101 -57 163t-209 89l-185 33q-223 37 -338 132q-116 95 -115 288q1 194 151 300q150 107 388 105q383 0 495 -238q32 -69 48 -141l-176 -35q-35 133 -114 193q-80 61 -249 61q-278 0 -334 -144q-36 -92 -5 -186q25 -78 128 -118q51 -20 127 -35
l205 -37q228 -43 334 -142t106 -288t-139 -307q-140 -119 -397 -119q-407 0 -543 248q-47 86 -57 205h188q25 -154 122 -222t290 -69zM569 1860h179l235 -277h-168l-158 162l-157 -162h-168z" />
    <glyph glyph-name="scircumflex" unicode="&#x15d;" horiz-adv-x="1069" 
d="M549 111q246 0 248 168q0 72 -38 112t-151 60l-135 20q-185 29 -276 98t-91 211q0 141 118 227q118 85 302 85q306 0 394 -177q27 -53 41 -112l-162 -27q-31 96 -88 135q-56 39 -154 39q-99 0 -147 -13q-130 -35 -134 -144q0 -70 31 -97q55 -46 170 -65l154 -25
q186 -30 267 -106t81 -217t-110 -228q-110 -88 -316 -88q-320 0 -428 183q-39 66 -45 159h172q18 -111 93 -155t204 -43zM446 1501h179l235 -291h-166l-159 181l-160 -181h-164z" />
    <glyph glyph-name="Scedilla" unicode="&#x15e;" horiz-adv-x="1316" 
d="M655 1339q-352 0 -352 -239q0 -105 58 -160.5t210 -83.5l205 -37q227 -43 334 -142t107 -288t-141 -307.5t-392 -118.5l-29 -74q195 -21 195 -168q0 -96 -72.5 -134t-165.5 -38t-163 11v114q68 -10 129 -10q116 0 116 53.5t-29.5 69.5t-115.5 16h-43l59 166
q-211 20 -339 128t-146 319h188q25 -154 122 -222.5t283 -68.5t264.5 72.5t78.5 181.5t-56.5 172t-209.5 90l-185 33q-223 37 -337.5 130.5t-114.5 288.5t148 300.5t390 105.5q384 0 455.5 -153.5t87.5 -225.5l-176 -35q-35 133 -114.5 193.5t-248.5 60.5z" />
    <glyph glyph-name="scedilla" unicode="&#x15f;" horiz-adv-x="1069" 
d="M463 -311q115 0 115 63q0 35 -30 50.5t-112 15.5h-43l56 155q-158 16 -257.5 97t-111.5 239h172q18 -111 93 -154.5t207 -43.5t188.5 46t56.5 119t-28 103.5t-64.5 45.5t-96.5 26l-135 20q-189 29 -278 97.5t-89 212t119 227.5t301 84q306 0 363 -115t72 -174l-162 -27
q-31 95 -88 134.5t-155 39.5q-162 0 -221 -45t-59 -113t42.5 -105t158.5 -56l154 -25q186 -31 267 -106.5t81 -214.5t-103.5 -226.5t-312.5 -91.5l-22 -65q184 -20 184 -162q0 -92 -69.5 -129t-163.5 -37t-152 10v113q78 -8 123 -8z" />
    <glyph glyph-name="Scaron" unicode="&#x160;" horiz-adv-x="1316" 
d="M680 125q331 0 336 264q0 101 -57 163t-209 89l-185 33q-223 37 -338 132q-116 95 -115 288q1 194 151 300q150 107 388 105q383 0 495 -238q32 -69 48 -141l-176 -35q-35 133 -114 193q-80 61 -249 61q-278 0 -334 -144q-36 -92 -5 -186q25 -78 128 -118q51 -20 127 -35
l205 -37q228 -43 334 -142t106 -288t-139 -307q-140 -119 -397 -119q-407 0 -543 248q-47 86 -57 205h188q25 -154 122 -222t290 -69zM334 1866h170l158 -164l157 164h166l-235 -275h-179z" />
    <glyph glyph-name="scaron" unicode="&#x161;" horiz-adv-x="1069" 
d="M549 111q246 0 248 168q0 72 -38 112t-151 60l-135 20q-185 29 -276 98t-91 211q0 141 118 227q118 85 302 85q306 0 394 -177q27 -53 41 -112l-162 -27q-31 96 -88 135q-56 39 -154 39q-99 0 -147 -13q-130 -35 -134 -144q0 -70 31 -97q55 -46 170 -65l154 -25
q186 -30 267 -106t81 -217t-110 -228q-110 -88 -316 -88q-320 0 -428 183q-39 66 -45 159h172q18 -111 93 -155t204 -43zM627 1214h-178l-236 291h166l160 -180l159 180h164z" />
    <glyph glyph-name="Tcommaaccent" unicode="&#x162;" horiz-adv-x="1230" 
d="M520 1294h-483v168h1157v-168h-483v-1294h-191v1294zM520 -137h203l-197 -307h-161z" />
    <glyph glyph-name="tcommaaccent" unicode="&#x163;" horiz-adv-x="710" 
d="M377 297q0 -172 145 -172q75 0 137 22l31 -137q-92 -31 -192 -32q-101 -1 -156 26t-88 76q-55 82 -55 264v574h-164v141h164v289h178v-289h280v-141h-280v-621zM356 -137h195l-191 -299h-155z" />
    <glyph glyph-name="Tcaron" unicode="&#x164;" horiz-adv-x="1230" 
d="M520 1294h-483v168h1157v-168h-483v-1294h-191v1294zM289 1866h170l157 -164l158 164h166l-235 -275h-179z" />
    <glyph glyph-name="tcaron" unicode="&#x165;" horiz-adv-x="710" 
d="M377 297q0 -172 145 -172q75 0 137 22l31 -137q-92 -31 -192 -32q-101 -1 -156 26t-88 76q-55 82 -55 264v574h-164v141h164v289h178v-289h280v-141h-280v-621zM551 1501h166l-88 -325h-131z" />
    <glyph glyph-name="Tbar" unicode="&#x166;" horiz-adv-x="1230" 
d="M520 635h-311v160h311v499h-483v168h1157v-168h-483v-499h309v-160h-309v-635h-191v635z" />
    <glyph glyph-name="tbar" unicode="&#x167;" horiz-adv-x="710" 
d="M377 297q0 -172 145 -172q76 0 137 22l31 -137q-97 -33 -195 -33q-172 0 -234 92.5t-62 274.5v145h-164v142h164v287h-164v141h164v289h178v-289h280v-141h-280v-287h280v-142h-280v-192z" />
    <glyph glyph-name="Utilde" unicode="&#x168;" horiz-adv-x="1396" 
d="M1251 580q0 -617 -553 -617q-264 -1 -408 147t-145 478v874h189v-882q0 -227 85 -340t283 -113t279 114q82 114 82 339v882h188v-882zM338 1595q0 119 57 181t143 61q86 0 175 -54q33 -19 63 -37t76 -17q86 0 86 104h135q0 -121 -57 -181t-158 -61q-51 -1 -89 17t-71 38
q-34 20 -64 36q-30 18 -75 18q-84 1 -86 -105h-135z" />
    <glyph glyph-name="utilde" unicode="&#x169;" horiz-adv-x="1148" 
d="M131 356v703h178v-668q0 -147 48 -209t162 -61q114 0 210 86q51 45 78 95t27 130v627h178v-1059h-176v164q-151 -197 -363 -197q-180 -1 -261 97t-81 292zM219 1239q0 119 55 179t141 60t171 -52q85 -53 133 -53q86 -1 88 100h131q0 -119 -55 -179t-139 -61
q-84 0 -173 54q-33 19 -63 37t-74 17q-82 0 -84 -102h-131z" />
    <glyph glyph-name="Umacron" unicode="&#x16a;" horiz-adv-x="1396" 
d="M1251 580q0 -617 -553 -617q-264 -1 -408 147t-145 478v874h189v-882q0 -227 85 -340t283 -113t279 114q82 114 82 339v882h188v-882zM397 1780h598v-152h-598v152z" />
    <glyph glyph-name="umacron" unicode="&#x16b;" horiz-adv-x="1148" 
d="M131 356v703h178v-668q0 -147 48 -209t162 -61q114 0 210 86q51 45 78 95t27 130v627h178v-1059h-176v164q-151 -197 -363 -197q-180 -1 -261 97t-81 292zM307 1419h535v-145h-535v145z" />
    <glyph glyph-name="Ubreve" unicode="&#x16c;" horiz-adv-x="1396" 
d="M1251 580q0 -617 -553 -617q-264 -1 -408 147t-145 478v874h189v-882q0 -227 85 -340t283 -113t279 114q82 114 82 339v882h188v-882zM553 1868q0 -86 41 -125t101 -39t104 39q43 39 43 125h139q0 -139 -76 -212t-209 -73t-208 73t-74 212h139z" />
    <glyph glyph-name="ubreve" unicode="&#x16d;" horiz-adv-x="1148" 
d="M131 356v703h178v-668q0 -147 48 -209t162 -61q114 0 210 86q51 45 78 95t27 130v627h178v-1059h-176v164q-151 -197 -363 -197q-180 -1 -261 97t-81 292zM430 1493q0 -86 42 -126t101 -40t103 40q43 40 43 126h135q0 -137 -75 -211t-206 -74t-205 74t-73 211h135z" />
    <glyph glyph-name="Uring" unicode="&#x16e;" horiz-adv-x="1396" 
d="M1251 580q0 -617 -553 -617q-264 -1 -408 147t-145 478v874h189v-882q0 -227 85 -340t283 -113t279 114q82 114 82 339v882h188v-882zM696 1614q100 0 100 108t-100 107q-100 1 -100 -107t100 -108zM483 1719q-1 105 63 159t150 53q147 0 198 -120q17 -40 17 -93
q0 -102 -61 -155q-61 -54 -150 -55q-90 -2 -154 52t-63 159z" />
    <glyph glyph-name="uring" unicode="&#x16f;" horiz-adv-x="1148" 
d="M131 356v703h178v-668q0 -147 48 -209t162 -61q114 0 210 86q51 45 78 95t27 130v627h178v-1059h-176v164q-151 -197 -363 -197q-180 -1 -261 97t-81 292zM477 1412q-1 -106 97 -105q98 -1 98 105t-98 106t-97 -106zM367 1411q0 101 61 155t147 54t148 -55
q61 -55 61 -155q0 -99 -60 -150q-60 -52 -147 -53q-88 -1 -149 51t-61 153z" />
    <glyph glyph-name="Uhungarumlaut" unicode="&#x170;" horiz-adv-x="1396" 
d="M1251 580q0 -617 -553 -617q-264 -1 -408 147t-145 478v874h189v-882q0 -227 85 -340t283 -113t279 114q82 114 82 339v882h188v-882zM969 1860h209l-269 -277h-164zM600 1860h209l-266 -277h-164z" />
    <glyph glyph-name="uhungarumlaut" unicode="&#x171;" horiz-adv-x="1148" 
d="M131 356v703h178v-668q0 -147 48 -209t162 -61q114 0 210 86q51 45 78 95t27 130v627h178v-1059h-176v164q-151 -197 -363 -197q-180 -1 -261 97t-81 292zM848 1501h205l-256 -291h-160zM492 1501h204l-254 -291h-161z" />
    <glyph glyph-name="Uogonek" unicode="&#x172;" horiz-adv-x="1396" 
d="M872 -381q-131 0 -185 44t-54 129t94 171h-29q-264 0 -408.5 147.5t-144.5 477.5v874h189v-882q0 -227 85 -340t283 -113t279.5 113.5t81.5 339.5v882h188v-882q0 -471 -321 -582q-131 -91 -131 -178q0 -43 25.5 -57.5t49.5 -14.5h27q27 0 37 2v-127q-20 -4 -66 -4z" />
    <glyph glyph-name="uogonek" unicode="&#x173;" horiz-adv-x="1148" 
d="M131 356v703h178v-668q0 -147 48.5 -208.5t162.5 -61.5t209 86q51 45 78 95t27 130v627h178v-1059q-129 -96 -129 -176q0 -70 86 -70h17q18 0 34 2v-121q-28 -4 -66 -4q-129 0 -180 42t-51 120q0 106 137 207h-24v164q-151 -197 -363 -197q-180 0 -261 97.5t-81 291.5z
" />
    <glyph glyph-name="Wcircumflex" unicode="&#x174;" horiz-adv-x="1906" 
d="M25 1462h213l305 -1202l317 1196h203l315 -1196l303 1202h201l-405 -1462h-199l-326 1223l-319 -1223h-193zM866 1860h178l236 -277h-168l-158 162l-157 -162h-168z" />
    <glyph glyph-name="wcircumflex" unicode="&#x175;" horiz-adv-x="1501" 
d="M16 1059h195l213 -844l244 838h180l237 -838l211 844h189l-309 -1059h-189l-237 844l-240 -844h-186zM662 1501h178l235 -291h-166l-159 181l-160 -181h-164z" />
    <glyph glyph-name="Ycircumflex" unicode="&#x176;" horiz-adv-x="1255" 
d="M727 0h-190v621l-510 841h217l387 -676l397 676h199l-500 -841v-621zM539 1860h178l235 -277h-168l-157 162l-158 -162h-168z" />
    <glyph glyph-name="ycircumflex" unicode="&#x177;" horiz-adv-x="1071" 
d="M390 -378q-48 -20 -129 -19q-81 0 -163 28l35 144q57 -21 119 -21t98 34t70 126l43 113l-449 1032h207l334 -832l305 832h197l-463 -1159q-29 -72 -57 -126q-63 -118 -147 -152zM446 1501h179l235 -291h-166l-159 181l-160 -181h-164z" />
    <glyph glyph-name="Ydieresis" unicode="&#x178;" horiz-adv-x="1255" 
d="M727 0h-190v621l-510 841h217l387 -676l397 676h199l-500 -841v-621zM702 1827h189v-209h-189v209zM336 1827h186v-209h-186v209z" />
    <glyph glyph-name="Zacute" unicode="&#x179;" horiz-adv-x="1200" 
d="M78 1296v166h1048v-147l-837 -1147h862l-29 -168h-1059v145l840 1151h-825zM678 1860h221l-283 -277h-178z" />
    <glyph glyph-name="zacute" unicode="&#x17a;" horiz-adv-x="956" 
d="M70 915v144h825v-133l-616 -783h647l-23 -143h-846v133l617 782h-604zM588 1501h219l-277 -291h-176z" />
    <glyph glyph-name="Zdotaccent" unicode="&#x17b;" horiz-adv-x="1200" 
d="M78 1296v166h1048v-147l-837 -1147h862l-29 -168h-1059v145l840 1151h-825zM510 1831h190v-215h-190v215z" />
    <glyph glyph-name="zdotaccent" unicode="&#x17c;" horiz-adv-x="956" 
d="M70 915v144h825v-133l-616 -783h647l-23 -143h-846v133l617 782h-604zM397 1464h183v-207h-183v207z" />
    <glyph glyph-name="Zcaron" unicode="&#x17d;" horiz-adv-x="1200" 
d="M78 1296v166h1048v-147l-837 -1147h862l-29 -168h-1059v145l840 1151h-825zM276 1866h170l158 -164l158 164h166l-236 -275h-178z" />
    <glyph glyph-name="zcaron" unicode="&#x17e;" horiz-adv-x="956" 
d="M70 915v144h825v-133l-616 -783h647l-23 -143h-846v133l617 782h-604zM575 1214h-178l-235 291h166l159 -180l160 180h164z" />
    <glyph glyph-name="longs" unicode="&#x17f;" horiz-adv-x="464" 
d="M494 1331q-72 0 -122 -38t-50 -138v-1155h-179v1151q0 162 91.5 245t230.5 83q96 0 180 -25l-29 -139q-50 16 -122 16z" />
    <glyph glyph-name="florin" unicode="&#x192;" horiz-adv-x="1212" 
d="M145 -209q72 0 111 38t61 142l179 910h-166l24 149h170l21 109q31 158 114.5 236.5t249.5 78.5q95 0 189 -39l-47 -139q-64 29 -143 29t-124 -38t-65 -143l-19 -94h271l-25 -149h-274l-180 -924q-31 -158 -110 -236.5t-241 -78.5q-96 0 -184 36l47 140q69 -27 141 -27z
" />
    <glyph glyph-name="Scommaaccent" unicode="&#x218;" horiz-adv-x="1316" 
d="M680 125q331 0 336 264q0 101 -57 163t-209 89l-185 33q-223 37 -338 132q-116 95 -115 288q1 194 151 300q150 107 388 105q383 0 495 -238q32 -69 48 -141l-176 -35q-35 133 -114 193q-80 61 -249 61q-278 0 -334 -144q-36 -92 -5 -186q25 -78 128 -118q51 -20 127 -35
l205 -37q228 -43 334 -142t106 -288t-139 -307q-140 -119 -397 -119q-407 0 -543 248q-47 86 -57 205h188q25 -154 122 -222t290 -69zM586 -137h202l-196 -307h-162z" />
    <glyph glyph-name="scommaaccent" unicode="&#x219;" horiz-adv-x="1069" 
d="M549 111q246 0 248 168q0 72 -38 112t-151 60l-135 20q-185 29 -276 98t-91 211q0 141 118 227q118 85 302 85q306 0 394 -177q27 -53 41 -112l-162 -27q-31 96 -88 135q-56 39 -154 39q-99 0 -147 -13q-130 -35 -134 -144q0 -70 31 -97q55 -46 170 -65l154 -25
q186 -30 267 -106t81 -217t-110 -228q-110 -88 -316 -88q-320 0 -428 183q-39 66 -45 159h172q18 -111 93 -155t204 -43zM467 -137h195l-191 -299h-156z" />
    <glyph glyph-name="uni021A" unicode="&#x21a;" horiz-adv-x="1230" 
d="M520 1294h-483v168h1157v-168h-483v-1294h-191v1294zM520 -137h203l-197 -307h-161z" />
    <glyph glyph-name="uni021B" unicode="&#x21b;" horiz-adv-x="710" 
d="M377 297q0 -172 145 -172q75 0 137 22l31 -137q-92 -31 -192 -32q-101 -1 -156 26t-88 76q-55 82 -55 264v574h-164v141h164v289h178v-289h280v-141h-280v-621zM356 -137h195l-191 -299h-155z" />
    <glyph glyph-name="dotlessj" unicode="&#x237;" horiz-adv-x="460" 
d="M1 -227q79 0 109.5 41t30.5 127v1118h178v-1071q0 -178 -62 -273.5t-224 -95.5q-102 0 -199 33l31 141q57 -20 136 -20z" />
    <glyph glyph-name="apostrophe" unicode="&#x2bc;" horiz-adv-x="542" 
d="M135 1462h189l-109 -430h-137z" />
    <glyph glyph-name="circumflex" unicode="&#x2c6;" horiz-adv-x="800" 
d="M311 1501h178l236 -291h-166l-160 181l-159 -181h-164z" />
    <glyph glyph-name="caron" unicode="&#x2c7;" horiz-adv-x="800" 
d="M489 1214h-178l-235 291h166l159 -180l160 180h164z" />
    <glyph glyph-name="uni02C9" unicode="&#x2c9;" horiz-adv-x="800" 
d="M133 1419h535v-145h-535v145z" />
    <glyph glyph-name="breve" unicode="&#x2d8;" horiz-adv-x="800" 
d="M256 1493q0 -86 42 -126t101.5 -40t102.5 40t43 126h135q0 -137 -75 -211t-206 -74t-204.5 74t-73.5 211h135z" />
    <glyph glyph-name="dotaccent" unicode="&#x2d9;" horiz-adv-x="800" 
d="M309 1464h183v-207h-183v207z" />
    <glyph glyph-name="ring" unicode="&#x2da;" horiz-adv-x="800" 
d="M303 1412q-1 -106 97 -105q98 -1 98 105t-98 106t-97 -106zM193 1411q0 102 61 155.5t146 53.5t147.5 -55.5t62.5 -154t-61.5 -151.5t-147.5 -53t-147 51.5t-61 153.5z" />
    <glyph glyph-name="ogonek" unicode="&#x2db;" horiz-adv-x="800" 
d="M250 -207q0 106 137 207h152q-129 -96 -129 -176q0 -70 86 -70h17q17 0 34 2v-121q-28 -4 -66 -4q-129 0 -180 42t-51 120z" />
    <glyph glyph-name="tilde" unicode="&#x2dc;" horiz-adv-x="800" 
d="M264 1341q-92 0 -92 -102h-131q0 119 55.5 179.5t140.5 60.5t170 -53.5t132 -53.5q90 0 90 101h131q0 -119 -55.5 -179.5t-153.5 -60.5q-49 0 -87 17.5t-71 37t-63.5 36.5t-65.5 17z" />
    <glyph glyph-name="hungarumlaut" unicode="&#x2dd;" horiz-adv-x="800" 
d="M582 1501h204l-256 -291h-159zM225 1501h205l-254 -291h-162z" />
    <glyph glyph-name="uni0394" unicode="&#x394;" horiz-adv-x="1245" 
d="M1022 166l-404 1096l-403 -1096h807zM1225 0h-1205v131l504 1331h195l506 -1331v-131z" />
    <glyph glyph-name="Omega" unicode="&#x3a9;" horiz-adv-x="1515" 
d="M322 770q0 -426 292 -616v-154h-534v158h307q-109 100 -182.5 250t-73.5 344t47 331.5t130 229.5t199 139t327.5 47t380.5 -185.5t169 -537.5q0 -295 -103 -432t-159 -186h314v-158h-537v154q293 173 293 604q0 583 -432 583q-223 0 -330.5 -149.5t-107.5 -421.5z" />
    <glyph glyph-name="uni03BC" unicode="&#x3bc;" horiz-adv-x="1148" 
d="M309 -397h-178v1456h178v-676q1 -147 55 -205t161 -57q107 0 208 88t101 205v645h178v-1059h-176v160q-140 -191 -332 -191q-132 0 -195 70v-436z" />
    <glyph glyph-name="pi" unicode="&#x3c0;" horiz-adv-x="1212" 
d="M217 897h-154v162h1086v-162h-152v-897h-182v897h-416v-897h-182v897z" />
    <glyph glyph-name="Wgrave" unicode="&#x1e80;" horiz-adv-x="1906" 
d="M25 1462h213l305 -1202l317 1196h203l315 -1196l303 1202h201l-405 -1462h-199l-326 1223l-319 -1223h-193zM862 1860l240 -277h-178l-283 277h221z" />
    <glyph glyph-name="wgrave" unicode="&#x1e81;" horiz-adv-x="1501" 
d="M16 1059h195l213 -844l244 838h180l237 -838l211 844h189l-309 -1059h-189l-237 844l-240 -844h-186zM424 1501h219l234 -291h-177z" />
    <glyph glyph-name="Wacute" unicode="&#x1e82;" horiz-adv-x="1906" 
d="M25 1462h213l305 -1202l317 1196h203l315 -1196l303 1202h201l-405 -1462h-199l-326 1223l-319 -1223h-193zM1053 1860h221l-283 -277h-178z" />
    <glyph glyph-name="wacute" unicode="&#x1e83;" horiz-adv-x="1501" 
d="M16 1059h195l213 -844l244 838h180l237 -838l211 844h189l-309 -1059h-189l-237 844l-240 -844h-186zM866 1501h219l-276 -291h-176z" />
    <glyph glyph-name="Wdieresis" unicode="&#x1e84;" horiz-adv-x="1906" 
d="M25 1462h213l305 -1202l317 1196h203l315 -1196l303 1202h201l-405 -1462h-199l-326 1223l-319 -1223h-193zM1044 1827h189v-209h-189v209zM678 1827h186v-209h-186v209z" />
    <glyph glyph-name="wdieresis" unicode="&#x1e85;" horiz-adv-x="1501" 
d="M16 1059h195l213 -844l244 838h180l237 -838l211 844h189l-309 -1059h-189l-237 844l-240 -844h-186zM838 1462h182v-202h-182v202zM481 1462h181v-202h-181v202z" />
    <glyph glyph-name="Ygrave" unicode="&#x1ef2;" horiz-adv-x="1255" 
d="M727 0h-190v621l-510 841h217l387 -676l397 676h199l-500 -841v-621zM522 1860l240 -277h-178l-283 277h221z" />
    <glyph glyph-name="ygrave" unicode="&#x1ef3;" horiz-adv-x="1071" 
d="M390 -378q-48 -20 -129 -19q-81 0 -163 28l35 144q57 -21 119 -21t98 34t70 126l43 113l-449 1032h207l334 -832l305 832h197l-463 -1159q-29 -72 -57 -126q-63 -118 -147 -152zM213 1501h219l234 -291h-177z" />
    <glyph glyph-name="endash" unicode="&#x2013;" horiz-adv-x="1024" 
d="M0 686h1024v-174h-1024v174z" />
    <glyph glyph-name="emdash" unicode="&#x2014;" horiz-adv-x="2048" 
d="M0 686h2048v-174h-2048v174z" />
    <glyph glyph-name="emdash" unicode="&#x2015;" horiz-adv-x="2048" 
d="M0 686h2048v-174h-2048v174z" />
    <glyph glyph-name="quoteleft" unicode="&#x2018;" horiz-adv-x="425" 
d="M205 1462h141l-59 -440h-191z" />
    <glyph glyph-name="quoteright" unicode="&#x2019;" horiz-adv-x="425" 
d="M139 1462h191l-109 -440h-141z" />
    <glyph glyph-name="quotesinglbase" unicode="&#x201a;" horiz-adv-x="425" 
d="M147 244h191l-109 -443h-141z" />
    <glyph glyph-name="quotedblleft" unicode="&#x201c;" horiz-adv-x="753" 
d="M205 1462h141l-59 -440h-191zM532 1462h142l-60 -440h-190z" />
    <glyph glyph-name="quotedblright" unicode="&#x201d;" horiz-adv-x="753" 
d="M139 1462h191l-109 -440h-141zM467 1462h190l-108 -440h-141z" />
    <glyph glyph-name="quotedblbase" unicode="&#x201e;" horiz-adv-x="753" 
d="M147 244h191l-109 -443h-141zM475 244h191l-109 -443h-141z" />
    <glyph glyph-name="dagger" unicode="&#x2020;" horiz-adv-x="956" 
d="M391 911h-352v156h352v395h176v-395h351v-156h-351v-1089h-176v1089z" />
    <glyph glyph-name="daggerdbl" unicode="&#x2021;" horiz-adv-x="956" 
d="M391 233h-352v158h352v529h-352v153h352v389h176v-389h351v-153h-351v-529h351v-158h-351v-411h-176v411z" />
    <glyph glyph-name="bullet" unicode="&#x2022;" horiz-adv-x="739" 
d="M169 947q79 79 202 79t201.5 -79t78.5 -201t-78 -201.5t-202 -79.5q-123 0 -202 79.5t-79 201.5t79 201z" />
    <glyph glyph-name="ellipsis" unicode="&#x2026;" horiz-adv-x="1728" 
d="M127 240h205v-240h-205v240zM1397 240h205v-240h-205v240zM762 240h205v-240h-205v240z" />
    <glyph glyph-name="perthousand" unicode="&#x2030;" horiz-adv-x="2707" 
d="M666 0h-174l718 1415h174zM1260 401q0 -295 190 -295t190 296t-190 294q-190 0 -190 -295zM1451 -39q-159 0 -259 110t-99 329q1 218 101 330t256 112q250 0 330 -245q27 -83 26 -196q0 -326 -210 -413q-66 -27 -145 -27zM238 1008q0 -295 190 -295t190 295t-190 295
t-190 -295zM429 567q-159 0 -259 110t-99 329q1 218 101 330t256 112q250 0 330 -245q27 -83 26 -195q0 -327 -210 -414q-66 -27 -145 -27zM2087 401q1 -295 191 -295t190 296t-191 294q-190 0 -190 -295zM2634 401q0 -326 -212 -413q-66 -27 -144 -27q-80 0 -144 27
q-214 89 -213 413q-1 215 99 328t257 113q250 0 330 -245q27 -83 27 -196z" />
    <glyph glyph-name="guilsinglleft" unicode="&#x2039;" horiz-adv-x="608" 
d="M88 526l281 455h180l-258 -453l258 -460h-184z" />
    <glyph glyph-name="guilsinglright" unicode="&#x203a;" horiz-adv-x="608" 
d="M317 520l-258 461h185l276 -459l-280 -454h-181z" />
    <glyph glyph-name="fraction" unicode="&#x2044;" horiz-adv-x="178" 
d="M-184 0h-174l718 1415h175z" />
    <glyph glyph-name="zerosuperior" unicode="&#x2070;" 
d="M231 1008q0 -295 190.5 -295t190.5 295t-190.5 295t-190.5 -295zM165 676.5q-99 109.5 -99 328.5t99 331t257 112q251 0 303.5 -164t52.5 -278t-25.5 -196.5t-96.5 -162.5t-231 -80q-161 0 -260 109.5z" />
    <glyph glyph-name="foursuperior" unicode="&#x2074;" 
d="M494 911v310l-240 -310h240zM641 1417v-506h102l-20 -120h-82v-191h-147v191h-402v100l408 526h141z" />
    <glyph glyph-name="fivesuperior" unicode="&#x2075;" 
d="M450 1122q135 0 202 -71.5t67 -203.5t-76 -206t-211 -74q-274 0 -297 248h133q16 -61 52 -92t107 -31t108.5 42t37.5 122q0 150 -145 150q-106 0 -164 -62h-112l41 473h469v-127h-349l-16 -209q80 41 153 41z" />
    <glyph glyph-name="sixsuperior" unicode="&#x2076;" 
d="M590 850q0 162 -154 162q-66 0 -116 -36t-50 -116q0 -113 57 -142.5t117 -29.5t103 42t43 120zM256 1051q83 71 212 71t199 -72.5t70 -198.5t-83 -205t-240 -79t-229 110.5t-72 260.5q0 273 89.5 391.5t232.5 118.5t207.5 -54.5t82.5 -162.5l-129 -21q-19 115 -147 115
q-174 0 -193 -274z" />
    <glyph glyph-name="sevensuperior" unicode="&#x2077;" 
d="M111 1280v137h602v-117q-194 -328 -291 -700h-168q129 421 278 680h-421z" />
    <glyph glyph-name="eightsuperior" unicode="&#x2078;" 
d="M252 818q0 -58 40 -95t129 -37t129 37t40 95t-38 95t-131 37t-131 -37t-38 -95zM272 1204q0 -129 148.5 -129t148.5 131q0 53 -33.5 89t-113.5 36t-115 -37t-35 -90zM131 1208q0 102 70.5 171t221.5 69t220.5 -68.5t69.5 -182.5t-105 -175q133 -63 133 -189
q0 -127 -79.5 -195.5t-240.5 -68.5t-240 69t-79 185q0 72 40 121t89 74q-100 57 -100 190z" />
    <glyph glyph-name="ninesuperior" unicode="&#x2079;" 
d="M416 1327q-162 1 -162 -159t152 -160q66 0 116.5 34.5t50.5 107.5t-39 125t-118 52zM584 971q-76 -80 -207 -80t-199.5 75t-68.5 199q0 125 81.5 204t239.5 79t227.5 -115.5t69.5 -266.5q0 -275 -81.5 -387t-224.5 -112q-142 0 -218 52.5t-88 181.5h133q10 -68 53 -89.5
t121 -21.5q162 0 162 281z" />
    <glyph glyph-name="zeroinferior" unicode="&#x2080;" 
d="M612 410q0 295 -190 295t-190 -295t190 -295t190 295zM423 -31q-159 0 -259 110t-99 329q1 218 101 330t256 112q250 0 330 -245q27 -83 26 -195q0 -327 -210 -414q-66 -27 -145 -27z" />
    <glyph glyph-name="oneinferior" unicode="&#x2081;" 
d="M551 819v-817h-164v655l-188 -98l-62 117l254 143h160z" />
    <glyph glyph-name="twoinferior" unicode="&#x2082;" 
d="M551 577q0 140 -127 140q-70 0 -110 -33t-60 -109l-145 23q64 252 317 252q137 0 210 -69t74 -174t-37 -165q-38 -61 -101 -125t-218 -182h367l-23 -133h-573v119q33 29 88 72t154 127t142 135q42 52 42 122z" />
    <glyph glyph-name="threeinferior" unicode="&#x2083;" 
d="M729 236q0 -117 -73 -192t-235 -75t-244 96q-63 74 -68 181h139q10 -72 48 -112t124 -40q158 0 158 139q0 72 -41 100t-107 27h-96v127h98q57 0 94 30t37 93q0 117 -143 117q-74 0 -112 -33t-56 -102l-139 22q18 96 91 165t218 70t217 -63t72 -170q0 -107 -105 -180
q123 -56 123 -200z" />
    <glyph glyph-name="fourinferior" unicode="&#x2084;" 
d="M489 313v310l-239 -310h239zM637 819v-506h102l-20 -120h-82v-191h-148v191h-401v100l408 526h141z" />
    <glyph glyph-name="fiveinferior" unicode="&#x2085;" 
d="M450 524q266 0 268 -274q1 -133 -75 -207t-211 -74q-274 0 -297 248h133q16 -61 52 -92t108 -31q70 0 108 42t37 122q0 150 -145 150q-106 0 -164 -62h-112l41 473h469v-127h-349l-16 -209q80 41 153 41z" />
    <glyph glyph-name="sixinferior" unicode="&#x2086;" 
d="M590 252q0 162 -154 162q-66 0 -116 -36t-50 -110t26 -111q48 -67 128 -67t123 42t43 120zM256 453q83 71 214 71t199 -73t68 -199q0 -125 -83 -204t-240 -79t-239 125q-62 95 -62 245q0 274 90 392q90 119 232 119q143 0 207 -54t83 -163l-129 -21q-19 115 -147 115
q-174 0 -193 -274z" />
    <glyph glyph-name="seveninferior" unicode="&#x2087;" 
d="M111 682v137h602v-117q-194 -328 -291 -700h-168q127 415 278 680h-421z" />
    <glyph glyph-name="eightinferior" unicode="&#x2088;" 
d="M252 220q0 -58 40 -95t129 -37t129 37t40 95t-38 95t-131 37t-131 -37t-38 -95zM272 606q0 -129 150 -129t147 131q0 53 -33 89q-34 36 -114 36t-115 -37t-35 -90zM131 610q0 102 71 171q72 69 222 69t220 -69t69 -183q0 -114 -105 -174q133 -63 133 -189
q1 -127 -79 -195t-241 -69q-161 0 -240 69t-79 185q0 72 40 121t89 74q-100 57 -100 190z" />
    <glyph glyph-name="nineinferior" unicode="&#x2089;" 
d="M416 729q-162 1 -162 -159t152 -160q66 0 116 34t51 108q0 74 -27 110q-49 66 -130 67zM408 92q92 0 134 69t42 212q-76 -80 -207 -80t-199 75q-69 75 -69 199q0 125 81 204q82 79 238 79t238 -129q61 -99 61 -252q0 -277 -82 -388q-82 -112 -224 -112q-142 1 -218 53
t-88 181h133q10 -67 53 -89t107 -22z" />
    <glyph glyph-name="Euro" unicode="&#x20ac;" horiz-adv-x="1212" 
d="M356 712v-40q0 -39 2 -62h443l-29 -133h-397q41 -247 146 -302.5t183 -55.5q150 0 217 66.5t91 222.5h172q-23 -217 -138.5 -331t-341.5 -114q-441 0 -511 514h-152l27 133h112q-2 20 -2 26v72q0 68 2 95h-139l27 131h129q62 372 234.5 446t278.5 74q206 0 312 -94
t143 -293l-161 -29q-35 145 -102.5 202.5t-199.5 57.5q-193 0 -252 -143t-73 -221h477l-27 -131h-467q-4 -54 -4 -91z" />
    <glyph glyph-name="afii61289" unicode="&#x2113;" 
d="M610 1188q0 166 -100 166q-76 0 -95.5 -89t-19.5 -161v-404q215 263 215 488zM506 1487q235 0 235 -299t-346 -670v-227q0 -136 59.5 -160.5t88.5 -24.5q88 0 170 82l73 -90q-111 -135 -282 -135q-125 0 -196.5 69.5t-80.5 205.5q-2 49 -2 58v112q-25 -27 -50 -49.5
t-54 -51.5l-62 90q43 41 53 51l113 113v524q0 199 80 300.5t201 101.5z" />
    <glyph glyph-name="trademark" unicode="&#x2122;" horiz-adv-x="1855" 
d="M834 1462h172l264 -659l268 659h170v-819h-125v617l-256 -617h-117l-252 614v-614h-124v819zM305 1339h-270v123h680v-123h-271v-696h-139v696z" />
    <glyph glyph-name="uni2126" unicode="&#x2126;" horiz-adv-x="1515" 
d="M322 770q0 -426 292 -616v-154h-534v158h307q-109 100 -182.5 250t-73.5 344t47 331.5t130 229.5t199 139t327.5 47t380.5 -185.5t169 -537.5q0 -295 -103 -432t-159 -186h314v-158h-537v154q291 172 291 603q0 584 -430 584q-223 0 -330.5 -149.5t-107.5 -421.5z" />
    <glyph glyph-name="estimated" unicode="&#x212e;" horiz-adv-x="1865" 
d="M1448 741q8 0 8 15v407q0 27 -18 49q-98 98 -227.5 154.5t-277 56.5t-277.5 -60t-228 -159q-20 -16 -20 -49v-399q0 -14 10 -15h1030zM408 285q0 -27 18 -45q209 -222 508 -222q164 0 299 68t235 178h119q-109 -133 -283 -210t-360 -77t-336.5 58.5t-263.5 159
t-177.5 236.5t-64.5 289.5t64.5 290t177.5 238t263.5 160.5t322.5 59t324.5 -59t265 -160.5t178 -238t65.5 -289.5v-21h-1345q-10 0 -10 -8v-407z" />
    <glyph glyph-name="onethird" unicode="&#x2153;" horiz-adv-x="1865" 
d="M559 0h-174l719 1415h174zM479 1417v-817h-164v655l-188 -98l-61 117l253 143h160zM1751 236q0 -117 -73 -192t-235 -75t-244 96q-61 72 -69 181h140q10 -72 48 -112t124 -40q158 0 157 139q0 72 -40 100q-41 28 -107 27h-96v127h98q57 0 94 30t37 93q0 117 -143 117
q-74 0 -112 -33t-56 -102l-139 22q18 96 91 165t218 70t217 -63t72 -170q0 -107 -105 -180q123 -56 123 -200z" />
    <glyph glyph-name="twothirds" unicode="&#x2154;" horiz-adv-x="1865" 
d="M676 0h-174l719 1415h174zM551 1175q0 140 -127 140q-70 0 -110 -33t-60 -108l-145 22q64 252 317 252q137 0 210 -69t74 -174t-37 -165q-38 -61 -101 -125t-218 -182h367l-23 -133h-573v119q33 29 88 72t154 127t142 135q42 52 42 122zM1751 236q0 -117 -73 -192
t-235 -75t-244 96q-61 72 -69 181h140q10 -72 48 -112t124 -40q158 0 157 139q0 72 -40 100q-41 28 -107 27h-96v127h98q57 0 94 30t37 93q0 117 -143 117q-74 0 -112 -33t-56 -102l-139 22q18 96 91 165t218 70t217 -63t72 -170q0 -107 -105 -180q123 -56 123 -200z" />
    <glyph glyph-name="onefifth" unicode="&#x2155;" horiz-adv-x="1865" 
d="M563 0h-174l719 1415h174zM479 1417v-817h-164v655l-188 -98l-61 117l253 143h160zM1476 524q72 0 122 -20q146 -59 147 -244q0 -143 -76 -217t-211 -74q-274 0 -297 248h133q16 -61 52 -92t108 -31q70 0 108 42t37 122q0 150 -145 150q-106 0 -164 -62h-112l41 473h469
v-127h-349l-16 -209q80 41 153 41z" />
    <glyph glyph-name="twofifths" unicode="&#x2156;" horiz-adv-x="1865" 
d="M674 0h-174l719 1415h174zM551 1175q0 140 -127 140q-70 0 -110 -33t-60 -108l-145 22q64 252 317 252q137 0 210 -69t74 -174t-37 -165q-38 -61 -101 -125t-218 -182h367l-23 -133h-573v119q33 29 88 72t154 127t142 135q42 52 42 122zM1476 524q72 0 122 -20
q146 -59 147 -244q0 -143 -76 -217t-211 -74q-274 0 -297 248h133q16 -61 52 -92t108 -31q70 0 108 42t37 122q0 150 -145 150q-106 0 -164 -62h-112l41 473h469v-127h-349l-16 -209q80 41 153 41z" />
    <glyph glyph-name="threefifths" unicode="&#x2157;" horiz-adv-x="1865" 
d="M657 0h-174l719 1415h174zM1476 524q72 0 122 -20q146 -59 147 -244q0 -143 -76 -217t-211 -74q-274 0 -297 248h133q16 -61 52 -92t108 -31q70 0 108 42t37 122q0 150 -145 150q-106 0 -164 -62h-112l41 473h469v-127h-349l-16 -209q80 41 153 41zM729 834
q0 -117 -73 -192t-235 -75t-244 96q-63 74 -68 181h139q10 -72 48 -112t124 -40q158 0 158 139q0 72 -41 100t-107 27h-96v127h98q57 0 94 30t37 93q0 117 -143 117q-74 0 -112 -33t-56 -102l-139 22q18 96 91 165t218 70t217 -63t72 -170q0 -107 -105 -180
q123 -56 123 -200z" />
    <glyph glyph-name="fourfifths" unicode="&#x2158;" horiz-adv-x="1865" 
d="M662 0h-175l719 1415h174zM1476 524q72 0 122 -20q146 -59 147 -244q0 -143 -76 -217t-211 -74q-274 0 -297 248h133q16 -61 52 -92t108 -31q70 0 108 42t37 122q0 150 -145 150q-106 0 -164 -62h-112l41 473h469v-127h-349l-16 -209q80 41 153 41zM494 911v310
l-240 -310h240zM641 1417v-506h102l-20 -120h-82v-191h-147v191h-402v100l408 526h141z" />
    <glyph glyph-name="onesixth" unicode="&#x2159;" horiz-adv-x="1865" 
d="M588 0h-174l719 1415h174zM479 1417v-817h-164v655l-188 -98l-61 117l253 143h160zM1292 262q0 -172 174 -172q60 0 103 42t43 120q0 162 -154 162q-66 0 -116 -36t-50 -116zM1278 453q83 71 214 71t199 -73t68 -199q0 -125 -83 -204t-240 -79t-239 125q-62 95 -62 245
q0 274 90 392q90 119 232 119t207 -54t83 -163l-129 -21q-10 59 -45 87t-103 28q-174 0 -192 -274z" />
    <glyph glyph-name="fivesixths" unicode="&#x215a;" horiz-adv-x="1865" 
d="M666 0h-174l718 1415h174zM1292 262q0 -172 174 -172q60 0 103 42t43 120q0 162 -154 162q-66 0 -116 -36t-50 -116zM1278 453q83 71 214 71t199 -73t68 -199q0 -125 -83 -204t-240 -79t-239 125q-62 95 -62 245q0 274 90 392q90 119 232 119t207 -54t83 -163l-129 -21
q-10 59 -45 87t-103 28q-174 0 -192 -274zM450 1122q266 0 268 -274q1 -133 -75 -207t-211 -74q-274 0 -297 248h133q16 -61 52 -92t108 -31q70 0 108 42t37 122q0 150 -145 150q-106 0 -164 -62h-112l41 473h469v-127h-349l-16 -209q80 41 153 41z" />
    <glyph glyph-name="oneeighth" unicode="&#x215b;" horiz-adv-x="1865" 
d="M559 0h-174l719 1415h174zM479 1417v-817h-164v655l-188 -98l-61 117l253 143h160zM1274 220q0 -58 40 -95t129 -37t129 37t40 95t-38 95t-131 37t-131 -37t-38 -95zM1294 606q0 -129 148 -129t149 131q0 53 -33 89q-34 36 -114 36t-115 -37t-35 -90zM1153 610
q0 102 71 171q72 69 222 69t220 -69t69 -183q0 -114 -105 -174q133 -63 133 -189q0 -127 -80 -195q-81 -68 -241 -69q-160 0 -239 69t-79 185q0 72 40 121t89 74q-100 57 -100 190z" />
    <glyph glyph-name="threeeighths" unicode="&#x215c;" horiz-adv-x="1865" 
d="M664 0h-175l719 1415h174zM1274 220q0 -58 40 -95t129 -37t129 37t40 95t-38 95t-131 37t-131 -37t-38 -95zM1294 606q0 -129 148 -129t149 131q0 53 -33 89q-34 36 -114 36t-115 -37t-35 -90zM1153 610q0 102 71 171q72 69 222 69t220 -69t69 -183q0 -114 -105 -174
q133 -63 133 -189q0 -127 -80 -195q-81 -68 -241 -69q-160 0 -239 69t-79 185q0 72 40 121t89 74q-100 57 -100 190zM729 834q0 -117 -73 -192t-235 -75t-244 96q-63 74 -68 181h139q10 -72 48 -112t124 -40q158 0 158 139q0 72 -41 100t-107 27h-96v127h98q57 0 94 30
t37 93q0 117 -143 117q-74 0 -112 -33t-56 -102l-139 22q18 96 91 165t218 70t217 -63t72 -170q0 -107 -105 -180q123 -56 123 -200z" />
    <glyph glyph-name="fiveeighths" unicode="&#x215d;" horiz-adv-x="1865" 
d="M662 0h-175l719 1415h174zM450 1122q266 0 268 -274q1 -133 -75 -207t-211 -74q-274 0 -297 248h133q16 -61 52 -92t108 -31q70 0 108 42t37 122q0 150 -145 150q-106 0 -164 -62h-112l41 473h469v-127h-349l-16 -209q80 41 153 41zM1274 220q0 -58 40 -95t129 -37
t129 37t40 95t-38 95t-131 37t-131 -37t-38 -95zM1294 606q0 -129 148 -129t149 131q0 53 -33 89q-34 36 -114 36t-115 -37t-35 -90zM1153 610q0 102 71 171q72 69 222 69t220 -69t69 -183q0 -114 -105 -174q133 -63 133 -189q0 -127 -80 -195q-81 -68 -241 -69
q-160 0 -239 69t-79 185q0 72 40 121t89 74q-100 57 -100 190z" />
    <glyph glyph-name="seveneighths" unicode="&#x215e;" horiz-adv-x="1865" 
d="M563 0h-174l719 1415h174zM1274 220q0 -58 40 -95t129 -37t129 37t40 95t-38 95t-131 37t-131 -37t-38 -95zM1294 606q0 -129 148 -129t149 131q0 53 -33 89q-34 36 -114 36t-115 -37t-35 -90zM1153 610q0 102 71 171q72 69 222 69t220 -69t69 -183q0 -114 -105 -174
q133 -63 133 -189q0 -127 -80 -195q-81 -68 -241 -69q-160 0 -239 69t-79 185q0 72 40 121t89 74q-100 57 -100 190zM84 1280v137h602v-117q-194 -328 -291 -700h-168q128 417 279 680h-422z" />
    <glyph glyph-name="partialdiff" unicode="&#x2202;" horiz-adv-x="1212" 
d="M635 1454q448 0 448 -627q0 -585 -199.5 -724.5t-365.5 -139.5q-203 0 -321.5 124.5t-118.5 321.5t125.5 345.5t361.5 148.5t348 -184q5 68 5 158q0 91 -23 182.5t-76.5 167.5t-189.5 76q-104 0 -169 -44.5t-100 -162.5l-153 28q45 178 153.5 254t274.5 76zM769 224.5
q87 111.5 87 250.5t-78.5 211t-182.5 72q-180 0 -261.5 -102t-81.5 -240q0 -137 75.5 -220t214.5 -83q140 0 227 111.5z" />
    <glyph glyph-name="Delta" unicode="&#x2206;" horiz-adv-x="1245" 
d="M1022 166l-404 1096l-403 -1096h807zM1225 0h-1205v131l504 1331h195l506 -1331v-131z" />
    <glyph glyph-name="product" unicode="&#x220f;" horiz-adv-x="1392" 
d="M156 1462h1081v-1462h-188v1292h-705v-1292h-188v1462z" />
    <glyph glyph-name="summation" unicode="&#x2211;" horiz-adv-x="1177" 
d="M66 1462h1060v-159h-833l438 -666l-450 -686h870l-29 -160h-1056v131l464 711l-464 694v135z" />
    <glyph glyph-name="minus" unicode="&#x2212;" horiz-adv-x="1212" 
d="M164 778h885v-162h-885v162z" />
    <glyph glyph-name="uni2215" unicode="&#x2215;" horiz-adv-x="178" 
d="M-184 0h-174l718 1415h175z" />
    <glyph glyph-name="uni2219" unicode="&#x2219;" horiz-adv-x="458" 
d="M127 842h205v-240h-205v240z" />
    <glyph glyph-name="radical" unicode="&#x221a;" horiz-adv-x="1230" 
d="M102 633v160h297l217 -570l426 1274h193l-522 -1497h-191l-256 633h-164z" />
    <glyph glyph-name="infinity" unicode="&#x221e;" horiz-adv-x="1212" 
d="M878 496q51 0 90.5 51t39.5 152t-39 152.5t-91 51.5q-87 0 -135.5 -61t-66.5 -146q17 -77 51.5 -120.5t67 -61.5t83.5 -18zM55 699q0 166 76 254.5t199 88.5q181 0 276 -184q95 184 280 184q186 0 228.5 -128t42.5 -215q0 -167 -76.5 -254t-197.5 -87q-180 0 -277 189
q-97 -189 -282 -189t-227 127t-42 214zM334 903q-51 0 -90 -51t-39 -151.5t39 -152.5t90 -52q90 0 137.5 63t65.5 146q-32 131 -92 164.5t-111 33.5z" />
    <glyph glyph-name="integral" unicode="&#x222b;" horiz-adv-x="645" 
d="M190 -102q128 0 123.5 90t-10.5 135l-133 985q-34 261 74 316t187 55t167 -31l-29 -135q-55 22 -107 22q-94 0 -113.5 -59t-4.5 -164l135 -987q34 -262 -74 -316.5t-186 -54.5t-170 31l31 135q64 -22 110 -22z" />
    <glyph glyph-name="approxequal" unicode="&#x2248;" horiz-adv-x="1212" 
d="M88 260q0 285 114.5 319.5t182.5 34.5t127 -33.5t111.5 -73.5t100.5 -73t110 -33q130 0 131 193h155q0 -284 -112.5 -321t-180.5 -37t-127 33.5t-111 74.5t-101.5 75t-111.5 34t-95 -44t-33 -149h-160zM88 754q0 283 114.5 318.5t182.5 35.5t127 -34t111.5 -73.5
t100.5 -72.5t110 -33q130 0 131 192h155q0 -282 -112.5 -320t-180.5 -38t-127 34t-111 75t-101.5 74.5t-111.5 33.5t-95 -44t-33 -148h-160z" />
    <glyph glyph-name="notequal" unicode="&#x2260;" horiz-adv-x="1212" 
d="M164 389v160h276l170 297h-446v160h530l119 211h164l-119 -211h191v-160h-277l-170 -297h447v-160h-533l-117 -213h-163l118 213h-190z" />
    <glyph glyph-name="lessequal" unicode="&#x2264;" horiz-adv-x="1212" 
d="M158 160h919v-160h-919v160zM158 801l919 403v-174l-712 -297l712 -297v-178l-919 404v139z" />
    <glyph glyph-name="greaterequal" unicode="&#x2265;" horiz-adv-x="1212" 
d="M1055 0h-920v160h920v-160zM1055 662l-920 -404v178l713 297l-713 297v174l920 -403v-139z" />
    <glyph glyph-name="lozenge" unicode="&#x25ca;" horiz-adv-x="1206" 
d="M938 731l-334 543l-328 -543l328 -541zM84 731l448 731h150l444 -731l-444 -731h-150z" />
    <glyph glyph-name="fi" unicode="&#xf001;" horiz-adv-x="1146" 
d="M551 1331q-70 0 -121 -38t-51 -138v-96h268v-141h-268v-918h-178v918h-166v141h166v92q0 160 90 243t211 84q122 1 200 -24l-28 -139q-53 16 -123 16zM819 1462h191v-207h-191v207zM825 1059h179v-1059h-179v1059z" />
    <glyph glyph-name="fl" unicode="&#xf002;" horiz-adv-x="1146" 
d="M551 1331q-70 0 -121 -38t-51 -138v-96h268v-141h-268v-918h-178v918h-166v141h166v92q0 160 90 243t211 84q122 1 200 -24l-28 -139q-53 16 -123 16zM825 1462h179v-1462h-179v1462z" />
    <glyph glyph-name="oneseventh" unicode="&#xf506;" horiz-adv-x="1865" 
d="M526 0h-174l719 1415h174zM479 1417v-817h-164v655l-188 -98l-61 117l253 143h160zM1133 682v137h602v-117q-194 -328 -291 -700h-168q127 415 278 680h-421z" />
    <glyph glyph-name="twosevenths" unicode="&#xf507;" horiz-adv-x="1865" 
d="M645 0h-174l719 1415h174zM551 1175q0 140 -127 140q-70 0 -110 -33t-60 -108l-145 22q64 252 317 252q137 0 210 -69t74 -174t-37 -165q-38 -61 -101 -125t-218 -182h367l-23 -133h-573v119q33 29 88 72t154 127t142 135q42 52 42 122zM1133 682v137h602v-117
q-194 -328 -291 -700h-168q127 415 278 680h-421z" />
    <glyph glyph-name="threesevenths" unicode="&#xf508;" horiz-adv-x="1865" 
d="M623 0h-174l718 1415h174zM1133 682v137h602v-117q-194 -328 -291 -700h-168q127 415 278 680h-421zM729 834q0 -117 -73 -192t-235 -75t-244 96q-63 74 -68 181h139q10 -72 48 -112t124 -40q158 0 158 139q0 72 -41 100t-107 27h-96v127h98q57 0 94 30t37 93
q0 117 -143 117q-74 0 -112 -33t-56 -102l-139 22q18 96 91 165t218 70t217 -63t72 -170q0 -107 -105 -180q123 -56 123 -200z" />
    <glyph glyph-name="foursevenths" unicode="&#xf509;" horiz-adv-x="1865" 
d="M614 0h-174l719 1415h174zM494 911v310l-240 -310h240zM641 1417v-506h102l-20 -120h-82v-191h-147v191h-402v100l408 526h141zM1133 682v137h602v-117q-194 -328 -291 -700h-168q127 415 278 680h-421z" />
    <glyph glyph-name="fivesevenths" unicode="&#xf50a;" horiz-adv-x="1865" 
d="M623 0h-174l718 1415h174zM450 1122q266 0 268 -274q1 -133 -75 -207t-211 -74q-274 0 -297 248h133q16 -61 52 -92t108 -31q70 0 108 42t37 122q0 150 -145 150q-106 0 -164 -62h-112l41 473h469v-127h-349l-16 -209q80 41 153 41zM1133 682v137h602v-117
q-194 -328 -291 -700h-168q127 415 278 680h-421z" />
    <glyph glyph-name="sixsevenths" unicode="&#xf50b;" horiz-adv-x="1865" 
d="M621 0h-175l719 1415h174zM590 850q0 162 -154 162q-66 0 -116 -36t-50 -110t26 -111q48 -67 128 -67t123 42t43 120zM459 1122q209 0 262 -161q16 -49 16 -107q0 -129 -83 -208t-240 -79t-239 125q-62 95 -62 245q0 274 90 392q90 119 232 119q143 0 207 -54t83 -163
l-129 -21q-19 115 -147 115q-174 0 -193 -274q83 71 203 71zM1133 682v137h602v-117q-194 -328 -291 -700h-168q127 415 278 680h-421z" />
    <glyph glyph-name="oneninth" unicode="&#xf50c;" horiz-adv-x="1865" 
d="M557 0h-174l719 1415h174zM479 1417v-817h-164v655l-188 -98l-61 117l253 143h160zM1276 570q0 -160 151 -160q66 0 117 34t51 108t-27 110q-49 66 -130 67q-162 1 -162 -159zM1430 92q92 0 134 69t42 212q-76 -80 -207 -80t-199 74t-69 200q-1 125 81 204t238 79
t238 -129q61 -99 61 -252q0 -399 -188 -476q-59 -24 -131 -24q-129 1 -205 53t-88 181h133q10 -67 53 -89t107 -22z" />
    <glyph glyph-name="twoninths" unicode="&#xf50d;" horiz-adv-x="1865" 
d="M676 0h-174l719 1415h174zM551 1175q0 140 -127 140q-70 0 -110 -33t-60 -108l-145 22q64 252 317 252q137 0 210 -69t74 -174t-37 -165q-38 -61 -101 -125t-218 -182h367l-23 -133h-573v119q33 29 88 72t154 127t142 135q42 52 42 122zM1276 570q0 -160 151 -160
q66 0 117 34t51 108t-27 110q-49 66 -130 67q-162 1 -162 -159zM1430 92q92 0 134 69t42 212q-76 -80 -207 -80t-199 74t-69 200q-1 125 81 204t238 79t238 -129q61 -99 61 -252q0 -399 -188 -476q-59 -24 -131 -24q-129 1 -205 53t-88 181h133q10 -67 53 -89t107 -22z" />
    <glyph glyph-name="fourninths" unicode="&#xf50e;" horiz-adv-x="1865" 
d="M649 0h-174l719 1415h174zM494 911v310l-240 -310h240zM641 1417v-506h102l-20 -120h-82v-191h-147v191h-402v100l408 526h141zM1276 570q0 -160 151 -160q66 0 117 34t51 108t-27 110q-49 66 -130 67q-162 1 -162 -159zM1430 92q92 0 134 69t42 212q-76 -80 -207 -80
t-199 74t-69 200q-1 125 81 204t238 79t238 -129q61 -99 61 -252q0 -399 -188 -476q-59 -24 -131 -24q-129 1 -205 53t-88 181h133q10 -67 53 -89t107 -22z" />
    <glyph glyph-name="fiveninths" unicode="&#xf50f;" horiz-adv-x="1865" 
d="M651 0h-174l719 1415h174zM450 1122q266 0 268 -274q1 -133 -75 -207t-211 -74q-274 0 -297 248h133q16 -61 52 -92t108 -31q70 0 108 42t37 122q0 150 -145 150q-106 0 -164 -62h-112l41 473h469v-127h-349l-16 -209q80 41 153 41zM1276 570q0 -160 151 -160
q66 0 117 34t51 108t-27 110q-49 66 -130 67q-162 1 -162 -159zM1430 92q92 0 134 69t42 212q-76 -80 -207 -80t-199 74t-69 200q-1 125 81 204t238 79t238 -129q61 -99 61 -252q0 -399 -188 -476q-59 -24 -131 -24q-129 1 -205 53t-88 181h133q10 -67 53 -89t107 -22z" />
    <glyph glyph-name="sevenninths" unicode="&#xf510;" horiz-adv-x="1865" 
d="M547 0h-174l719 1415h174zM1276 570q0 -160 151 -160q66 0 117 34t51 108t-27 110q-49 66 -130 67q-162 1 -162 -159zM1430 92q92 0 134 69t42 212q-76 -80 -207 -80t-199 74t-69 200q-1 125 81 204t238 79t238 -129q61 -99 61 -252q0 -399 -188 -476q-59 -24 -131 -24
q-129 1 -205 53t-88 181h133q10 -67 53 -89t107 -22zM84 1280v137h602v-117q-194 -328 -291 -700h-168q128 417 279 680h-422z" />
    <glyph glyph-name="eightninths" unicode="&#xf511;" horiz-adv-x="1865" 
d="M662 0h-175l719 1415h174zM1276 570q0 -160 151 -160q66 0 117 34t51 108t-27 110q-49 66 -130 67q-162 1 -162 -159zM1430 92q92 0 134 69t42 212q-76 -80 -207 -80t-199 74t-69 200q-1 125 81 204t238 79t238 -129q61 -99 61 -252q0 -399 -188 -476q-59 -24 -131 -24
q-129 1 -205 53t-88 181h133q10 -67 53 -89t107 -22zM252 818q0 -58 40 -95t129 -37t129 37t40 95t-38 95t-131 37t-131 -37t-38 -95zM272 1204q0 -129 150 -129t147 131q0 53 -33 89q-34 36 -114 36t-115 -37t-35 -90zM131 1208q0 102 71 171q72 69 222 69t220 -69t69 -183
q0 -114 -105 -174q133 -63 133 -189q1 -127 -79 -195t-241 -69q-161 0 -240 69t-79 185q0 72 40 121t89 74q-100 57 -100 190z" />
    <glyph glyph-name="zero.alt" unicode="&#xf800;" horiz-adv-x="1212" 
d="M606 123q257 0 310 338q17 109 18 246q0 436 -173 545q-63 40 -155 40q-177 0 -252 -148q-76 -148 -78 -437q0 -435 175 -544q63 -40 155 -40zM602 -37q-244 0 -380 179t-136 558t142 574q135 180 382 180q378 0 480 -414q34 -142 34 -334q-1 -563 -302 -699
q-97 -44 -220 -44z" />
    <glyph glyph-name="one.alt" unicode="&#xf801;" horiz-adv-x="927" 
d="M653 1415v-1415h-184v1217l-326 -197l-77 133l421 262h166z" />
    <glyph glyph-name="two.alt" unicode="&#xf802;" horiz-adv-x="1161" 
d="M88 1065q95 389 496 389q212 0 330 -114t118 -296t-98 -326t-336 -345q-60 -51 -122 -103t-122 -106h693l-27 -164h-920v147q78 70 248 217t259 233q164 156 212 284q25 68 25 145q0 129 -70 198t-194 68q-210 0 -280 -143q-24 -47 -42 -111z" />
    <glyph glyph-name="three.alt" unicode="&#xf803;" horiz-adv-x="1181" 
d="M1067 406q0 -201 -121 -322t-369 -121t-380 141q-99 106 -109 287h178q16 -137 86 -204t224 -67q306 1 307 277q0 139 -77 199t-210 59h-162v162h168q118 -1 184 63t66 181q0 233 -272 233q-139 0 -208 -57t-104 -180l-168 26q32 163 137 257q123 114 344 114t343 -107
q112 -102 110 -260q0 -121 -49 -201t-154 -132q236 -94 236 -348z" />
    <glyph glyph-name="four.alt" unicode="&#xf804;" horiz-adv-x="1175" 
d="M745 498v682l-489 -682h489zM918 1415v-917h194l-25 -146h-169v-352h-173v352h-675v133l673 930h175z" />
    <glyph glyph-name="five.alt" unicode="&#xf805;" horiz-adv-x="1159" 
d="M1055 455q0 -242 -126 -367t-344 -125q-442 0 -474 399h176q23 -125 89 -183t205 -58q140 0 217 80q76 79 76 235t-66 241q-67 85 -233 85t-280 -121h-156l64 774h770v-162h-621l-39 -440q132 98 308 96q220 0 327 -128t107 -326z" />
    <glyph glyph-name="six.alt" unicode="&#xf806;" horiz-adv-x="1212" 
d="M928 438q0 232 -154 299q-56 25 -126 25q-143 0 -234 -79q-92 -79 -91 -232t81 -245q80 -93 218 -93q137 0 222 86q84 86 84 239zM674 909q216 0 323 -128t107 -340t-131 -345q-133 -133 -355 -133q-269 0 -395 210q-100 170 -99 429q2 469 165 679q135 173 370 173
q195 0 291 -83t129 -238l-164 -29q-35 109 -88 151q-53 43 -151 43q-97 0 -159 -30q-199 -95 -216 -545q125 186 373 186z" />
    <glyph glyph-name="seven.alt" unicode="&#xf807;" horiz-adv-x="1120" 
d="M51 1253v162h965v-151q-330 -609 -508 -1264h-201q202 686 508 1253h-764z" />
    <glyph glyph-name="eight.alt" unicode="&#xf808;" horiz-adv-x="1212" 
d="M944 383q0 260 -338 260t-338 -262q0 -121 81 -196t258 -75t257 76q80 74 80 197zM301 1051q0 -127 73 -191q72 -64 232 -63q160 0 233 63t72 193q0 179 -165 235q-58 20 -140 20t-140 -20q-165 -58 -165 -237zM127 1059q0 175 123 285t358 110q236 0 357 -109
q120 -109 118 -286q0 -135 -62 -216t-153 -114q113 -41 186 -130t72 -220q0 -188 -130 -302t-390 -114t-391 114t-131 302q0 129 72 214t188 130q-90 35 -154 118q-63 83 -63 218z" />
    <glyph glyph-name="nine.alt" unicode="&#xf809;" horiz-adv-x="1185" 
d="M557 655q137 0 223 82t86 236q0 218 -161 303q-55 29 -130 29q-141 0 -224 -86t-83 -240q0 -226 152 -298q55 -26 137 -26zM540 115q100 1 163 31q125 61 165 279q20 110 21 269q-129 -188 -356 -188t-336 127t-109 340t133 347t354 134q266 0 390 -215
q100 -175 100 -459q0 -385 -97 -577q-121 -240 -405 -240q-199 0 -311 84t-129 264h174q19 -104 81 -150t162 -46z" />
    <glyph glyph-name="zero.sups" unicode="&#xf80a;" 
d="M422 961q190 0 190 296t-190 293q-189 0 -190 -294q0 -294 190 -295zM423 815q-159 0 -259 110t-99 329q1 218 101 330t256 112q250 0 330 -245q27 -83 26 -196q0 -326 -210 -413q-66 -27 -145 -27z" />
    <glyph glyph-name="one.sups" unicode="&#xf80b;" 
d="M541 1665v-817h-164v655l-189 -98l-61 117l254 143h160z" />
    <glyph glyph-name="two.sups" unicode="&#xf80c;" 
d="M551 1423q0 140 -127 140q-70 0 -110 -33t-60 -109l-145 23q64 252 317 252q137 0 210 -69t74 -174t-37 -165q-38 -61 -101 -125t-218 -182h367l-23 -133h-573v119q33 29 88 71t155 129q100 86 142 135q41 51 41 121z" />
    <glyph glyph-name="three.sups" unicode="&#xf80d;" 
d="M729 1081q0 -117 -73 -191t-234 -75q-161 0 -245 95q-63 74 -68 182h139q10 -72 48 -112t124 -40q158 0 158 139q0 72 -41 100t-107 27h-96v127h98q57 0 94 30t37 93q0 117 -143 117q-74 0 -112 -33t-56 -102l-139 22q18 96 91 165t218 70t217 -63t72 -170
q0 -107 -105 -180q123 -56 123 -201z" />
    <glyph glyph-name="four.sups" unicode="&#xf80e;" 
d="M494 1159v309l-240 -309h240zM641 1665v-506h102l-20 -121h-82v-190h-147v190h-402v101l408 526h141z" />
    <glyph glyph-name="five.sups" unicode="&#xf80f;" 
d="M450 1370q136 0 201 -71q66 -71 67 -203q1 -133 -75 -207t-211 -74q-274 0 -297 248h133q16 -61 52 -92t108 -31q70 0 108 42t37 122q0 150 -145 149q-107 0 -164 -61h-112l41 473h469v-127h-349l-16 -209q80 41 153 41z" />
    <glyph glyph-name="six.sups" unicode="&#xf810;" 
d="M590 1098q0 160 -154 162q-66 0 -116 -36t-50 -110t26 -111q48 -67 128 -67t123 42t43 120zM256 1298q84 72 214 72t199 -73q68 -73 68 -199q0 -125 -83 -204t-240 -79t-239 125q-62 95 -62 245q0 274 90 392q90 119 232 119q143 0 207 -54t83 -163l-129 -21
q-19 115 -147 115q-174 0 -193 -275z" />
    <glyph glyph-name="seven.sups" unicode="&#xf811;" 
d="M111 1528v137h602v-117q-193 -327 -291 -700h-168q127 415 278 680h-421z" />
    <glyph glyph-name="eight.sups" unicode="&#xf812;" 
d="M252 1066q0 -58 40 -95t129 -37t129 37t40 95t-38 95t-131 37t-131 -37t-38 -95zM272 1452q0 -129 150 -129t147 131q0 53 -33 89q-34 36 -114 36t-115 -37t-35 -90zM131 1456q0 102 71 171q72 69 222 69t220 -69t69 -184q0 -115 -105 -173q133 -63 133 -189
q1 -127 -79 -195t-241 -69q-161 0 -240 69t-79 185q0 72 40 121t89 74q-100 57 -100 190z" />
    <glyph glyph-name="nine.sups" unicode="&#xf813;" 
d="M254 1415q0 -160 152 -160q66 0 116 35q50 36 51 108q0 72 -27 110q-49 68 -130 67q-162 0 -162 -160zM381 1139q-134 0 -203 75t-69 199q0 125 81 204q82 79 238 79t238 -129q61 -99 61 -253q0 -276 -82 -387q-82 -112 -224 -112t-218 52t-88 182h133q10 -68 53 -90
t107 -21q92 0 134 69t42 212q-41 -43 -87 -61t-116 -19z" />
    <glyph glyph-name="zero.sinf" unicode="&#xf814;" 
d="M612 162q0 295 -190 295t-190 -295t190 -295t190 295zM423 -279q-159 0 -259 110t-99 328t100 330q99 113 257 113q251 0 330 -245q27 -83 26 -195q0 -327 -210 -414q-66 -27 -145 -27z" />
    <glyph glyph-name="one.sinf" unicode="&#xf815;" 
d="M551 571v-817h-164v656l-188 -99l-62 117l254 143h160z" />
    <glyph glyph-name="two.sinf" unicode="&#xf816;" 
d="M125 -246v119q33 29 88 72q294 230 321 305q17 47 17 98t-33 86q-32 35 -98 35t-106 -33t-60 -108l-145 22q65 255 317 252q139 0 211 -69t73 -174t-37 -165q-38 -61 -92 -116t-122 -109q-68 -53 -105 -82h367l-23 -133h-573z" />
    <glyph glyph-name="three.sinf" unicode="&#xf817;" 
d="M729 -12q0 -117 -73 -192t-235 -75t-244 96q-63 74 -68 181h139q10 -72 48 -112t124 -40q158 0 158 140q0 72 -41 100t-107 27h-96v127h98q57 0 94 30t37 92q0 117 -143 117q-74 0 -112 -33t-56 -102l-139 23q29 158 177 215q54 20 130 20q147 0 219 -63t72 -171
t-105 -180q123 -56 123 -200z" />
    <glyph glyph-name="four.sinf" unicode="&#xf818;" 
d="M455 66v309l-240 -309h240zM602 571v-505h103l-21 -121h-82v-191h-147v191h-402v100l408 526h141z" />
    <glyph glyph-name="five.sinf" unicode="&#xf819;" 
d="M449 276q267 0 269 -274q1 -133 -75 -207t-211 -74q-274 0 -297 248h133q16 -61 52 -92t108 -31q70 0 108 42t37 122q0 150 -145 150q-106 0 -164 -62h-112l41 473h469v-127h-349l-16 -208q78 40 152 40z" />
    <glyph glyph-name="six.sinf" unicode="&#xf81a;" 
d="M590 4q0 162 -154 162q-66 0 -116 -36t-50 -116q0 -114 83 -156q31 -16 91 -16t103 42t43 120zM737 8q0 -129 -83 -208t-240 -79t-239 125q-62 95 -62 245q0 274 90 392q90 119 232 119q143 0 207 -54t83 -163l-129 -20q-20 116 -147 114q-174 0 -193 -274q83 71 203 71
q209 0 262 -161q16 -49 16 -107z" />
    <glyph glyph-name="seven.sinf" unicode="&#xf81b;" 
d="M111 434v137h602v-116q-193 -327 -291 -701h-168q128 418 278 680h-421z" />
    <glyph glyph-name="eight.sinf" unicode="&#xf81c;" 
d="M590 -28q0 58 -38 96t-131 36q-93 0 -131 -37t-38 -95t40 -95t129 -37t129 37t40 95zM272 358q0 -129 150 -129t147 131q0 53 -33 90q-34 36 -114 36t-115 -38q-35 -37 -35 -90zM131 362q0 102 71 172q72 70 222 68q150 0 220 -68t69 -183q0 -114 -105 -175
q133 -63 133 -189q1 -127 -79 -195t-241 -68t-240 68t-79 185q0 72 40 121t89 74q-100 57 -100 190z" />
    <glyph glyph-name="nine.sinf" unicode="&#xf81d;" 
d="M254 324q0 -162 152 -162q66 0 116 35t51 108q0 73 -27 109q-49 66 -129 67q-163 0 -163 -157zM408 -156q92 0 134 69t42 212q-76 -80 -206 -80t-199 75q-70 75 -70 199q0 125 81 204q82 79 238 79t238 -129q61 -99 61 -252q0 -277 -82 -388q-82 -112 -224 -112
q-142 1 -218 53t-88 181h133q10 -67 53 -89t107 -22z" />
    <glyph glyph-name="commaaccent.cap" horiz-adv-x="800" 
d="M377 -137h203l-197 -307h-162z" />
    <glyph glyph-name="hungarumlaut.cap" horiz-adv-x="800" 
d="M590 1860h209l-269 -277h-163zM221 1860h209l-266 -277h-164z" />
    <glyph glyph-name="cedilla.cap" horiz-adv-x="800" 
d="M330 -336q116 0 116 53.5t-29.5 69.5t-115.5 16h-43l74 203h121l-45 -117q194 -20 194 -168q0 -96 -72.5 -134t-164.5 -38t-164 11v114q68 -10 129 -10z" />
    <glyph glyph-name="tilde.cap" horiz-adv-x="800" 
d="M262 1700q-94 0 -94 -105h-135q0 119 57 180.5t158 61.5q51 0 89 -17.5t70.5 -37t63.5 -36.5t76 -17q86 0 86 104h135q0 -121 -57.5 -181.5t-157.5 -60.5q-51 0 -89 17.5t-71 37t-63.5 37t-67.5 17.5z" />
    <glyph glyph-name="ogonek.cap" horiz-adv-x="800" 
d="M485 -381q-131 0 -185 44t-54 124q0 108 139 213h162q-135 -96 -135 -180q0 -43 26 -57.5t50 -14.5h26q27 0 37 2v-127q-20 -4 -66 -4z" />
    <glyph glyph-name="ring.cap" horiz-adv-x="800" 
d="M399 1614q101 0 101 108t-100.5 108t-100.5 -108t100 -108zM186 1719q0 105 63.5 158.5t152.5 53.5t150.5 -55.5t61.5 -157t-62.5 -156.5t-150.5 -55t-151.5 53.5t-63.5 158.5z" />
    <glyph glyph-name="dieresis.cap" horiz-adv-x="800" 
d="M489 1827h189v-209h-189v209zM123 1827h186v-209h-186v209z" />
    <glyph glyph-name="macron.cap" horiz-adv-x="800" 
d="M100 1780h598v-152h-598v152z" />
    <glyph glyph-name="caron.cap" horiz-adv-x="800" 
d="M74 1866h170l157 -164l158 164h166l-236 -275h-178z" />
    <glyph glyph-name="dotaccent.cap" horiz-adv-x="800" 
d="M305 1831h191v-215h-191v215z" />
    <glyph glyph-name="breve.cap" horiz-adv-x="800" 
d="M256 1868q0 -86 41 -125t101 -39t103.5 39t43.5 125h139q0 -139 -76 -212t-209 -73t-207.5 73t-74.5 212h139z" />
    <glyph glyph-name="kgreenlandic.case" horiz-adv-x="1507" 
d="M162 1462h190v-700l686 700h215l-522 -547l576 -915h-217l-496 791l-242 -242v-549h-190v1462zM1370 1462h141l-59 -440h-190z" />
    <glyph glyph-name="napostrophe.case" horiz-adv-x="1644" 
d="M373 1462h186l744 -1161v1161h182v-1462h-180l-750 1155v-1155h-182v1462zM57 1462h191l-109 -436h-139z" />
    <glyph glyph-name="circumflex.cap" horiz-adv-x="800" 
d="M311 1860h178l236 -277h-168l-158 162l-157 -162h-168z" />
    <glyph glyph-name="commaaccent" horiz-adv-x="800" 
d="M379 -137h194l-190 -299h-156z" />
    <glyph glyph-name="grave.cap" horiz-adv-x="800" 
d="M391 1860l240 -277h-178l-283 277h221z" />
    <glyph glyph-name="revcommaaccent" horiz-adv-x="800" 
d="M418 1501h155l-151 -297h-195z" />
    <glyph glyph-name="acute.cap" horiz-adv-x="800" 
d="M410 1860h221l-283 -277h-178z" />
    <glyph glyph-name="caron.alt" horiz-adv-x="800" 
d="M340 1462h176l-94 -418h-137z" />
    <glyph glyph-name="highrevcomma" horiz-adv-x="800" 
d="M418 1501h155l-151 -297h-195z" />
    <glyph glyph-name="i.locl" horiz-adv-x="462" 
d="M135 1462h191v-207h-191v207zM141 1059h178v-1059h-178v1059z" />
    </font>
</defs>
</svg>
